<?xml version="1.0" standalone="no"?>
<!DOCTYPE svg PUBLIC "-//W3C//DTD SVG 1.1//EN" "http://www.w3.org/Graphics/SVG/1.1/DTD/svg11.dtd" >
<svg>
<metadata>
Created by FontForge 20090622 at Mon Apr 18 15:29:05 2016
 By deploy user
Copyright &#194;&#169; 2008 - 2010 Linotype GmbH, www.linotype.com. All rights reserved. This font software may not be reproduced, modified, disclosed or transferred without the express written approval of Linotype GmbH.
</metadata>
<defs>
<font id="DINNextRoundedLTPro-Medium" horiz-adv-x="549" >
  <font-face 
    font-family="DIN Next Rounded LT Pro Medium"
    font-weight="500"
    font-stretch="normal"
    units-per-em="1000"
    panose-1="2 15 6 3 2 2 3 5 2 3"
    ascent="750"
    descent="-250"
    x-height="482"
    cap-height="685"
    bbox="-103 -223 1028 921"
    underline-thickness="50"
    underline-position="-50"
    unicode-range="U+0020-U+FB04"
  />
<missing-glyph horiz-adv-x="483" 
d="M0 30v620q0 30 30 30h424q29 0 29 -30v-620q0 -30 -29 -30h-424q-30 0 -30 30zM59 61q0 -6 7 -6h352q6 0 6 6v558q0 6 -6 6h-352q-7 0 -7 -6v-558zM228 231q-16 0 -26.5 10t-10.5 26v10q0 35 24 63l38 46q28 33 28 60q0 23 -14.5 37.5t-36.5 14.5q-21 0 -33 -9t-22 -31
q-12 -24 -32 -24q-15 0 -24.5 9t-9.5 24q0 4 2 14q10 36 41.5 59t80.5 23q54 0 88 -33t34 -82q0 -45 -33 -85l-42 -49q-15 -18 -15 -39v-8q0 -16 -10.5 -26t-26.5 -10zM182 151q0 19 13.5 32t32.5 13q18 0 31.5 -13t13.5 -32t-13.5 -32t-31.5 -13q-19 0 -32.5 13t-13.5 32z
" />
    <glyph glyph-name="IJ" unicode="IJ" horiz-adv-x="773" 
d="M75 57v566q0 28 16.5 45t42.5 17t42.5 -17t16.5 -45v-566q0 -28 -16.5 -45t-42.5 -17t-42.5 17t-16.5 45zM322 42q-17 17 -17 43q0 21 15 35.5t37 14.5q20 0 44 -17q33 -23 75 -23q108 0 108 129v399q0 28 16.5 45t42.5 17t42.5 -17t16.5 -45v-392q0 -115 -62 -178.5
t-168 -63.5q-44 0 -86 15.5t-64 37.5z" />
    <glyph glyph-name="ij" unicode="ij" horiz-adv-x="516" 
d="M62 622q0 28 19.5 47.5t47.5 19.5t47.5 -19.5t19.5 -47.5t-19.5 -47.5t-47.5 -19.5t-47.5 19.5t-19.5 47.5zM129 -5q-25 0 -40.5 16t-15.5 43v374q0 27 15.5 43t40.5 16t40.5 -16t15.5 -43v-374q0 -27 -15.5 -43t-40.5 -16zM320 622q0 28 19.5 47.5t47.5 19.5t47.5 -19.5
t19.5 -47.5t-19.5 -47.5t-47.5 -19.5t-47.5 19.5t-19.5 47.5zM290 -180q-25 0 -38.5 13t-13.5 35q0 44 46 51q27 5 37 17t10 43v449q0 27 15.5 43t40.5 16t40.5 -16t15.5 -43v-448q0 -84 -37 -122t-116 -38z" />
    <glyph glyph-name="napostrophe" unicode="&#x22;n" horiz-adv-x="548" 
d="M185 437h1q40 56 127 56q76 0 121.5 -50t45.5 -129v-260q0 -27 -15.5 -43t-40.5 -16t-40.5 16t-15.5 43v234q0 48 -23.5 76.5t-67.5 28.5q-43 0 -67.5 -29t-24.5 -76v-234q0 -27 -15.5 -43t-40.5 -16t-40.5 16t-15.5 43v374q0 27 15.5 43t40.5 16q47 0 56 -50zM87 550
q-12 -39 -46 -39q-21 0 -34.5 12.5t-13.5 33.5q0 11 3 22l22 67q12 39 46 39q21 0 34.5 -12.5t13.5 -33.5q0 -11 -3 -22z" />
    <glyph glyph-name="f_f" unicode="ff" horiz-adv-x="658" 
d="M248 680h4q26 0 41.5 -13.5t15.5 -36.5q0 -22 -14.5 -36t-36.5 -14q-34 0 -46 -12t-12 -46v-34q0 -6 6 -6h55q21 0 33.5 -12t12.5 -32t-12.5 -31.5t-33.5 -11.5h-55q-6 0 -6 -6v-335q0 -27 -15.5 -43t-40.5 -16t-40.5 16t-15.5 43v335q0 6 -7 6h-16q-21 0 -33.5 11.5
t-12.5 31.5t12.5 32t33.5 12h16q7 0 7 6v32q0 86 38 123t122 37zM577 680h4q26 0 41.5 -13.5t15.5 -36.5q0 -22 -14.5 -36t-36.5 -14q-34 0 -46 -12t-12 -46v-34q0 -6 6 -6h55q21 0 33.5 -12t12.5 -32t-12.5 -31.5t-33.5 -11.5h-55q-6 0 -6 -6v-335q0 -27 -15.5 -43
t-40.5 -16t-40.5 16t-15.5 43v335q0 6 -7 6h-16q-21 0 -33.5 11.5t-12.5 31.5t12.5 32t33.5 12h16q7 0 7 6v32q0 86 38 123t122 37z" />
    <glyph glyph-name="fi" unicode="fi" horiz-adv-x="587" 
d="M248 680h4q26 0 41.5 -13.5t15.5 -36.5q0 -22 -14.5 -36t-36.5 -14q-34 0 -46 -12t-12 -46v-34q0 -6 6 -6h55q21 0 33.5 -12t12.5 -32t-12.5 -31.5t-33.5 -11.5h-55q-6 0 -6 -6v-335q0 -27 -15.5 -43t-40.5 -16t-40.5 16t-15.5 43v335q0 6 -7 6h-16q-21 0 -33.5 11.5
t-12.5 31.5t12.5 32t33.5 12h16q7 0 7 6v32q0 86 38 123t122 37zM391 622q0 28 19.5 47.5t47.5 19.5t47.5 -19.5t19.5 -47.5t-19.5 -47.5t-47.5 -19.5t-47.5 19.5t-19.5 47.5zM458 -5q-25 0 -40.5 16t-15.5 43v374q0 27 15.5 43t40.5 16t40.5 -16t15.5 -43v-374
q0 -27 -15.5 -43t-40.5 -16z" />
    <glyph glyph-name="fl" unicode="fl" horiz-adv-x="620" 
d="M248 680h4q26 0 41.5 -13.5t15.5 -36.5q0 -22 -14.5 -36t-36.5 -14q-34 0 -46 -12t-12 -46v-34q0 -6 6 -6h55q21 0 33.5 -12t12.5 -32t-12.5 -31.5t-33.5 -11.5h-55q-6 0 -6 -6v-335q0 -27 -15.5 -43t-40.5 -16t-40.5 16t-15.5 43v335q0 6 -7 6h-16q-21 0 -33.5 11.5
t-12.5 31.5t12.5 32t33.5 12h16q7 0 7 6v32q0 86 38 123t122 37zM540 -6h-8q-71 0 -101.5 34.5t-30.5 106.5v491q0 27 15.5 43t40.5 16t40.5 -16t15.5 -43v-482q0 -25 9 -36t30 -14q47 -6 47 -49q0 -23 -14.5 -37t-43.5 -14z" />
    <glyph glyph-name="f_f_i" unicode="ffi" horiz-adv-x="916" 
d="M248 680h4q26 0 41.5 -13.5t15.5 -36.5q0 -22 -14.5 -36t-36.5 -14q-34 0 -46 -12t-12 -46v-34q0 -6 6 -6h55q21 0 33.5 -12t12.5 -32t-12.5 -31.5t-33.5 -11.5h-55q-6 0 -6 -6v-335q0 -27 -15.5 -43t-40.5 -16t-40.5 16t-15.5 43v335q0 6 -7 6h-16q-21 0 -33.5 11.5
t-12.5 31.5t12.5 32t33.5 12h16q7 0 7 6v32q0 86 38 123t122 37zM577 680h4q26 0 41.5 -13.5t15.5 -36.5q0 -22 -14.5 -36t-36.5 -14q-34 0 -46 -12t-12 -46v-34q0 -6 6 -6h55q21 0 33.5 -12t12.5 -32t-12.5 -31.5t-33.5 -11.5h-55q-6 0 -6 -6v-335q0 -27 -15.5 -43
t-40.5 -16t-40.5 16t-15.5 43v335q0 6 -7 6h-16q-21 0 -33.5 11.5t-12.5 31.5t12.5 32t33.5 12h16q7 0 7 6v32q0 86 38 123t122 37zM720 622q0 28 19.5 47.5t47.5 19.5t47.5 -19.5t19.5 -47.5t-19.5 -47.5t-47.5 -19.5t-47.5 19.5t-19.5 47.5zM787 -5q-25 0 -40.5 16
t-15.5 43v374q0 27 15.5 43t40.5 16t40.5 -16t15.5 -43v-374q0 -27 -15.5 -43t-40.5 -16z" />
    <glyph glyph-name="f_f_l" unicode="ffl" horiz-adv-x="949" 
d="M248 680h4q26 0 41.5 -13.5t15.5 -36.5q0 -22 -14.5 -36t-36.5 -14q-34 0 -46 -12t-12 -46v-34q0 -6 6 -6h55q21 0 33.5 -12t12.5 -32t-12.5 -31.5t-33.5 -11.5h-55q-6 0 -6 -6v-335q0 -27 -15.5 -43t-40.5 -16t-40.5 16t-15.5 43v335q0 6 -7 6h-16q-21 0 -33.5 11.5
t-12.5 31.5t12.5 32t33.5 12h16q7 0 7 6v32q0 86 38 123t122 37zM577 680h4q26 0 41.5 -13.5t15.5 -36.5q0 -22 -14.5 -36t-36.5 -14q-34 0 -46 -12t-12 -46v-34q0 -6 6 -6h55q21 0 33.5 -12t12.5 -32t-12.5 -31.5t-33.5 -11.5h-55q-6 0 -6 -6v-335q0 -27 -15.5 -43
t-40.5 -16t-40.5 16t-15.5 43v335q0 6 -7 6h-16q-21 0 -33.5 11.5t-12.5 31.5t12.5 32t33.5 12h16q7 0 7 6v32q0 86 38 123t122 37zM869 -6h-8q-71 0 -101.5 34.5t-30.5 106.5v491q0 27 15.5 43t40.5 16t40.5 -16t15.5 -43v-482q0 -25 9 -36t30 -14q47 -6 47 -49
q0 -23 -14.5 -37t-43.5 -14z" />
    <glyph glyph-name=".notdef" horiz-adv-x="483" 
d="M0 30v620q0 30 30 30h424q29 0 29 -30v-620q0 -30 -29 -30h-424q-30 0 -30 30zM59 61q0 -6 7 -6h352q6 0 6 6v558q0 6 -6 6h-352q-7 0 -7 -6v-558zM228 231q-16 0 -26.5 10t-10.5 26v10q0 35 24 63l38 46q28 33 28 60q0 23 -14.5 37.5t-36.5 14.5q-21 0 -33 -9t-22 -31
q-12 -24 -32 -24q-15 0 -24.5 9t-9.5 24q0 4 2 14q10 36 41.5 59t80.5 23q54 0 88 -33t34 -82q0 -45 -33 -85l-42 -49q-15 -18 -15 -39v-8q0 -16 -10.5 -26t-26.5 -10zM182 151q0 19 13.5 32t32.5 13q18 0 31.5 -13t13.5 -32t-13.5 -32t-31.5 -13q-19 0 -32.5 13t-13.5 32z
" />
    <glyph glyph-name=".null" horiz-adv-x="500" 
 />
    <glyph glyph-name="nonmarkingreturn" horiz-adv-x="333" 
 />
    <glyph glyph-name="space" unicode=" " horiz-adv-x="239" 
 />
    <glyph glyph-name="exclam" unicode="!" horiz-adv-x="306" 
d="M153 190q-25 0 -40.5 16t-15.5 44v376q0 27 15.5 43t40.5 16t40.5 -16t15.5 -43v-376q0 -28 -15.5 -44t-40.5 -16zM84 60q0 28 20 48.5t49 20.5t49 -20.5t20 -48.5t-20 -48.5t-49 -20.5t-49 20.5t-20 48.5z" />
    <glyph glyph-name="quotedbl" unicode="&#x22;" horiz-adv-x="346" 
d="M244 482q-18 0 -29.5 11.5t-11.5 32.5v115q0 21 11 32.5t30 11.5t30 -11.5t11 -32.5v-115q0 -21 -11.5 -32.5t-29.5 -11.5zM102 482q-18 0 -29.5 11.5t-11.5 32.5v115q0 21 11 32.5t30 11.5t30 -11.5t11 -32.5v-115q0 -21 -11.5 -32.5t-29.5 -11.5z" />
    <glyph glyph-name="numbersign" unicode="#" horiz-adv-x="537" 
d="M74 46l23 164h-42q-19 0 -30 10.5t-11 28.5t11 28.5t30 10.5h52l16 116h-42q-19 0 -30 10.5t-11 28.5t11 28.5t30 10.5h53l22 163q6 40 42 40q21 0 31.5 -14t7.5 -37l-21 -152h117l22 163q6 40 42 40q21 0 31.5 -14t7.5 -37l-21 -152h44q19 0 30 -10.5t11 -28.5
t-11 -28.5t-30 -10.5h-55l-15 -116h44q19 0 30 -10.5t11 -28.5t-11 -28.5t-30 -10.5h-55l-24 -175q-6 -40 -42 -40q-21 0 -31.5 14t-7.5 37l22 164h-116l-24 -175q-6 -40 -42 -40q-21 0 -31.5 14t-7.5 37zM189 288h117l16 116h-117z" />
    <glyph glyph-name="dollar" unicode="$" 
d="M81 40q-25 15 -25 44q0 22 14 36.5t37 14.5q14 0 32 -9q60 -32 111 -36v205q-86 14 -134.5 65t-48.5 127q0 83 51 138.5t132 63.5v37q0 33 29 33q30 0 30 -33v-36q66 -6 122 -36q27 -16 27 -46q0 -20 -13.5 -34.5t-34.5 -14.5q-14 0 -26 6q-40 18 -75 23v-195
q90 -15 137 -65t47 -128q0 -85 -49 -140.5t-135 -67.5v-41q0 -33 -30 -33q-29 0 -29 33v38q-92 4 -169 51zM250 405v183q-34 -7 -54 -32t-20 -61q0 -69 74 -90zM309 93q75 18 75 103q0 66 -75 88v-191z" />
    <glyph glyph-name="percent" unicode="%" horiz-adv-x="781" 
d="M170 20q0 12 6 23l364 630q13 22 36 22q16 0 26 -10t10 -26q0 -11 -7 -23l-364 -629q-12 -23 -35 -23q-16 0 -26 10t-10 26zM192 330q-45 0 -77.5 21.5t-43.5 57.5q-9 27 -9 100t9 100q11 36 43.5 57.5t77.5 21.5t77.5 -21.5t43.5 -57.5q9 -27 9 -100t-9 -100
q-11 -36 -43.5 -57.5t-77.5 -21.5zM192 402q35 0 44 29q5 15 5 78t-5 78q-9 29 -44 29t-44 -29q-5 -15 -5 -78t5 -78q9 -29 44 -29zM468 70q-9 27 -9 100t9 100q11 36 43.5 57.5t77.5 21.5t77.5 -21.5t43.5 -57.5q9 -27 9 -100t-9 -100q-11 -36 -43.5 -57.5t-77.5 -21.5
t-77.5 21.5t-43.5 57.5zM545 92q9 -29 44 -29t44 29q5 15 5 78t-5 78q-9 29 -44 29t-44 -29q-5 -15 -5 -78t5 -78z" />
    <glyph glyph-name="ampersand" unicode="&#x26;" horiz-adv-x="646" 
d="M64 171q0 56 29.5 104.5t99.5 103.5q-44 56 -60 88t-16 68q0 68 49 112t120 44q73 0 119.5 -45t46.5 -108q0 -46 -26 -84.5t-92 -89.5l106 -136l47 56q17 20 38 20q19 0 32.5 -13t13.5 -33q0 -18 -15 -36l-57 -69l24 -31q17 -22 35 -22q24 0 38 -14t14 -36t-16 -36
t-44 -14h-4q-34 0 -54.5 11t-44.5 42l-17 21q-45 -45 -85.5 -65t-91.5 -20q-91 0 -140 50t-49 132zM275 440q45 35 60 55.5t15 43.5q0 25 -18 42.5t-45 17.5q-28 0 -46.5 -17.5t-18.5 -43.5q0 -18 9.5 -36t43.5 -62zM168 177q0 -41 25 -66t68 -25q53 0 112 62l-121 155
q-84 -65 -84 -126z" />
    <glyph glyph-name="quotesingle" unicode="'" horiz-adv-x="204" 
d="M102 482q-18 0 -29.5 11.5t-11.5 32.5v115q0 21 11 32.5t30 11.5t30 -11.5t11 -32.5v-115q0 -21 -11.5 -32.5t-29.5 -11.5z" />
    <glyph glyph-name="parenleft" unicode="(" horiz-adv-x="300" 
d="M154 -57q-103 188 -103 385t103 385q18 31 45 31q19 0 31 -12.5t12 -30.5q0 -11 -6 -26q-78 -177 -78 -347t78 -347q6 -15 6 -26q0 -18 -12 -30.5t-31 -12.5q-27 0 -45 31z" />
    <glyph glyph-name="parenright" unicode=")" horiz-adv-x="300" 
d="M57 -19q78 177 78 347t-78 347q-6 15 -6 26q0 18 12 30.5t31 12.5q27 0 45 -31q103 -188 103 -385t-103 -385q-18 -31 -45 -31q-19 0 -31 12.5t-12 30.5q0 11 6 26z" />
    <glyph glyph-name="asterisk" unicode="*" horiz-adv-x="336" 
d="M168 388q-14 0 -22.5 9.5t-8.5 25.5l1 61l-52 -31q-10 -6 -21 -6q-12 0 -20.5 9t-8.5 22q0 20 18 29l53 29l-52 29q-19 10 -19 30q0 13 8.5 22t21.5 9q10 0 20 -6l52 -32l-1 62q0 16 8.5 25.5t22.5 9.5t23 -9.5t9 -25.5l-1 -61l51 31q10 6 20 6q13 0 21.5 -9t8.5 -22
q0 -20 -19 -30l-53 -29l54 -29q18 -9 18 -29q0 -13 -8.5 -22t-20.5 -9q-11 0 -21 6l-51 31l1 -61q0 -16 -9 -25.5t-23 -9.5z" />
    <glyph glyph-name="plus" unicode="+" 
d="M225 106v116q0 6 -6 6h-116q-24 0 -37.5 13.5t-13.5 34.5t13.5 34.5t37.5 13.5h116q6 0 6 6v116q0 25 13.5 39t35.5 14t36 -14t14 -39v-116q0 -6 6 -6h116q24 0 37.5 -13.5t13.5 -34.5t-13.5 -34.5t-37.5 -13.5h-116q-6 0 -6 -6v-116q0 -25 -14 -39t-36 -14t-35.5 14
t-13.5 39z" />
    <glyph glyph-name="comma" unicode="," horiz-adv-x="242" 
d="M51 -52l43 136q12 39 49 39q22 0 37 -14t15 -37q0 -10 -3 -19l-47 -136q-12 -39 -49 -39q-22 0 -35 13.5t-13 37.5q0 10 3 19z" />
    <glyph glyph-name="hyphen" unicode="-" horiz-adv-x="385" 
d="M91 216q-25 0 -39 13.5t-14 36.5q0 22 14.5 35.5t38.5 13.5h203q24 0 38.5 -13.5t14.5 -35.5q0 -23 -14 -36.5t-39 -13.5h-203z" />
    <glyph glyph-name="period" unicode="." horiz-adv-x="248" 
d="M53 61q0 29 21 50t50 21t50 -21t21 -50t-21 -50t-50 -21t-50 21t-21 50z" />
    <glyph glyph-name="slash" unicode="/" horiz-adv-x="425" 
d="M64 30q0 8 4 22l197 606q12 38 46 38q22 0 36 -12.5t14 -33.5q0 -8 -4 -22l-197 -606q-12 -38 -46 -38q-22 0 -36 12.5t-14 33.5z" />
    <glyph glyph-name="zero" unicode="0" 
d="M81 122q-14 44 -14 218t14 218q42 133 193 133q150 0 194 -133q14 -44 14 -218t-14 -218q-44 -133 -194 -133q-151 0 -193 133zM191 143q19 -54 83 -54t84 54q9 27 9 197t-9 197q-20 54 -84 54t-83 -54q-9 -27 -9 -197t9 -197z" />
    <glyph glyph-name="one" unicode="1" 
d="M247 54v493h-2l-75 -53q-14 -10 -34 -10q-19 0 -33 14.5t-14 34.5q0 27 30 49l109 77q37 26 70 26q28 0 44.5 -18t16.5 -48v-565q0 -27 -15.5 -43t-40.5 -16t-40.5 16t-15.5 43z" />
    <glyph glyph-name="two" unicode="2" 
d="M63 49q0 29 34 70l222 275q45 56 45 106q0 41 -24.5 66t-66.5 25q-70 0 -95 -66q-15 -40 -52 -40q-24 0 -38.5 13.5t-14.5 36.5q0 4 2 16q12 57 65.5 98.5t135.5 41.5q92 0 146 -53t54 -136t-68 -166l-195 -234v-2h216q24 0 38 -14t14 -36t-14 -36t-38 -14h-313
q-24 0 -38.5 13.5t-14.5 35.5z" />
    <glyph glyph-name="three" unicode="3" 
d="M76 100q-5 15 -5 27q0 22 14 36t37 14q32 0 52 -36q29 -52 96 -52q47 0 74.5 28t27.5 75q0 49 -30.5 78.5t-77.5 29.5h-10q-22 0 -36 14t-14 36t14 36t36 14h10q41 0 67 27t26 72q0 43 -24.5 67.5t-67.5 24.5q-64 0 -87 -51q-17 -35 -50 -35q-22 0 -36.5 14t-14.5 36
q0 13 6 27q20 48 68 78.5t118 30.5q93 0 147 -51.5t54 -133.5q0 -95 -76 -144v-2q36 -17 63 -60.5t27 -106.5q0 -90 -60 -147t-153 -57q-73 0 -124 30t-71 81z" />
    <glyph glyph-name="four" unicode="4" 
d="M98 110q-28 0 -44 15.5t-16 41.5q0 21 19 63l197 419q16 36 52 36q23 0 37.5 -14t14.5 -38q0 -15 -9 -34l-183 -387v-2h153q6 0 6 6v122q0 27 15 42.5t39 15.5q25 0 41.5 -16t16.5 -42v-122q0 -6 6 -6h22q24 0 38 -14t14 -36t-14 -36t-38 -14h-22q-6 0 -6 -6v-50
q0 -27 -15.5 -43t-40.5 -16t-40.5 16t-15.5 43v50q0 6 -6 6h-221z" />
    <glyph glyph-name="five" unicode="5" 
d="M86 100q-4 9 -4 21q0 22 14 35.5t36 13.5q31 0 50 -30q32 -51 93 -51q69 0 87 55q10 30 10 76q0 44 -10 74q-20 57 -84 57q-50 0 -78 -38q-25 -32 -58 -32q-25 0 -39.5 15.5t-14.5 42.5v292q0 49 49 49h286q24 0 38 -14t14 -36t-14 -36t-38 -14h-226q-6 0 -6 -6v-157h2
q37 34 107 34q132 0 170 -112q14 -44 14 -119q0 -65 -14 -107q-19 -59 -71.5 -91.5t-122.5 -32.5q-73 0 -123 31.5t-67 79.5z" />
    <glyph glyph-name="six" unicode="6" 
d="M58 199q0 73 45 156l165 299q16 31 50 31q22 0 37 -13.5t15 -36.5q0 -17 -8 -32l-117 -205l2 -2q18 9 51 9q82 0 138 -55t56 -146q0 -101 -61.5 -158t-155.5 -57t-155.5 56t-61.5 154zM171 197q0 -48 28 -78t76 -30t76 30t28 78t-28 78t-76 30t-76 -30t-28 -78z" />
    <glyph glyph-name="seven" unicode="7" 
d="M157 48q0 13 4 24l202 505v3h-171q-6 0 -6 -6v-36q0 -26 -14.5 -41.5t-38.5 -15.5t-38.5 15.5t-14.5 41.5v89q0 25 14.5 39t39.5 14h291q30 0 46 -16t16 -43q0 -24 -19 -72l-206 -518q-14 -36 -52 -36q-24 0 -38.5 15t-14.5 38z" />
    <glyph glyph-name="eight" unicode="8" 
d="M55 193q0 55 24 97.5t61 65.5v2q-29 19 -49.5 56t-20.5 83q0 81 55 137.5t149 56.5q95 0 150 -56.5t55 -137.5q0 -46 -20.5 -83t-49.5 -56v-2q37 -23 61 -65.5t24 -97.5q0 -91 -61.5 -147.5t-158.5 -56.5q-96 0 -157.5 57t-61.5 147zM274 407q41 0 66.5 27t25.5 65
q0 39 -25.5 65.5t-66.5 26.5q-40 0 -65.5 -26.5t-25.5 -65.5q0 -38 25.5 -65t65.5 -27zM168 198q0 -48 29 -78.5t77 -30.5t77.5 30.5t29.5 78.5t-29.5 78.5t-77.5 30.5t-77 -30.5t-29 -78.5z" />
    <glyph glyph-name="nine" unicode="9" 
d="M179 45q0 17 8 32l117 205l-2 2q-18 -9 -51 -9q-82 0 -138 55t-56 146q0 101 61.5 158t155.5 57t155.5 -56t61.5 -154q0 -73 -45 -156l-165 -299q-16 -31 -50 -31q-22 0 -37 13.5t-15 36.5zM274 375q48 0 76 30t28 78t-28 78t-76 30t-76 -30t-28 -78t28 -78t76 -30z" />
    <glyph glyph-name="colon" unicode=":" horiz-adv-x="258" 
d="M129 345q-29 0 -50 21t-21 50t21 50t50 21t50 -21t21 -50t-21 -50t-50 -21zM58 61q0 29 21 50t50 21t50 -21t21 -50t-21 -50t-50 -21t-50 21t-21 50z" />
    <glyph glyph-name="semicolon" unicode=";" horiz-adv-x="258" 
d="M35 -52l43 136q12 39 49 39q22 0 37 -14t15 -37q0 -10 -3 -19l-47 -136q-12 -39 -49 -39q-22 0 -35 13.5t-13 37.5q0 10 3 19zM129 345q-29 0 -50 21t-21 50t21 50t50 21t50 -21t21 -50t-21 -50t-50 -21z" />
    <glyph glyph-name="less" unicode="&#x3c;" 
d="M104 215q-52 22 -52 61t52 61l320 134q12 5 25 5q21 0 34.5 -12.5t13.5 -33.5q0 -32 -36 -48l-259 -105v-2l259 -105q36 -14 36 -48q0 -21 -13.5 -33.5t-34.5 -12.5q-13 0 -25 5z" />
    <glyph glyph-name="equal" unicode="=" 
d="M103 329q-24 0 -37.5 13.5t-13.5 34.5t13.5 34.5t37.5 13.5h343q24 0 37.5 -13.5t13.5 -34.5t-13.5 -34.5t-37.5 -13.5h-343zM103 127q-24 0 -37.5 13.5t-13.5 34.5t13.5 34.5t37.5 13.5h343q24 0 37.5 -13.5t13.5 -34.5t-13.5 -34.5t-37.5 -13.5h-343z" />
    <glyph glyph-name="greater" unicode="&#x3e;" 
d="M100 76q-21 0 -34.5 12.5t-13.5 33.5q0 34 36 48l259 105v2l-259 105q-36 16 -36 48q0 21 13.5 33.5t34.5 12.5q13 0 25 -5l320 -134q52 -22 52 -61t-52 -61l-320 -134q-12 -5 -25 -5z" />
    <glyph glyph-name="question" unicode="?" horiz-adv-x="464" 
d="M224 186q-24 0 -39.5 14.5t-15.5 40.5v7q0 60 40 106l55 66q42 50 42 95q0 32 -21 54t-56 22q-64 0 -86 -62q-16 -39 -52 -39q-23 0 -37.5 13.5t-14.5 35.5q0 14 4 26q18 57 67 91.5t122 34.5q84 0 136 -49.5t52 -125.5q0 -73 -55 -138l-60 -71q-26 -31 -26 -60v-6
q0 -25 -16 -40t-39 -15zM157 60q0 28 20.5 48.5t48.5 20.5t48.5 -20.5t20.5 -48.5t-20.5 -48.5t-48.5 -20.5t-48.5 20.5t-20.5 48.5z" />
    <glyph glyph-name="at" unicode="@" horiz-adv-x="902" 
d="M54 268q0 173 110.5 282.5t286.5 109.5q175 0 285 -109.5t110 -282.5q0 -104 -46 -159t-118 -55q-86 0 -122 64h-1q-33 -63 -133 -63q-110 0 -142 97q-14 42 -14 112q0 68 14 112q31 97 135 97q79 0 112 -53h2v9q2 16 14 27t32 11t32 -12.5t12 -34.5v-210q0 -74 58 -74
q73 0 73 131q0 141 -82 226t-221 85q-141 0 -223 -85t-82 -225t82.5 -225t223.5 -85q109 0 190 36q14 4 20 4q16 0 27 -10.5t11 -27.5q0 -25 -26 -37q-91 -47 -222 -47q-177 0 -287.5 109t-110.5 283zM370 194q18 -56 77 -56q60 0 78 56q8 26 8 70t-8 70q-18 56 -78 56
q-59 0 -77 -56q-8 -26 -8 -70t8 -70z" />
    <glyph glyph-name="A" unicode="A" horiz-adv-x="617" 
d="M29 50q0 10 4 22l198 546q24 67 78 67q55 0 79 -67l196 -546q4 -12 4 -22q0 -25 -17 -40t-40 -15q-42 0 -56 41l-37 106h-260l-36 -106q-14 -41 -56 -41q-23 0 -40 15t-17 40zM215 247h187l-92 265h-3z" />
    <glyph glyph-name="B" unicode="B" horiz-adv-x="607" 
d="M75 52v575q0 24 14 38.5t39 14.5h210q104 0 158 -48.5t54 -131.5q0 -104 -79 -145v-2q39 -16 65 -57.5t26 -99.5q0 -95 -60 -145.5t-168 -50.5h-206q-25 0 -39 14t-14 38zM199 397h136q45 0 71 24.5t26 64.5q0 41 -26 65.5t-71 24.5h-136q-6 0 -6 -6v-167q0 -6 6 -6z
M193 110q0 -6 6 -6h142q49 0 76 26t27 69t-27 68.5t-76 25.5h-142q-6 0 -6 -6v-177z" />
    <glyph glyph-name="C" unicode="C" horiz-adv-x="567" 
d="M74 153q-19 64 -19 187t19 187q26 80 87 122t149 42q70 0 124.5 -30t80.5 -81q10 -18 10 -35q0 -23 -15.5 -38t-38.5 -15q-30 0 -52 32q-40 61 -109 61q-93 0 -122 -89q-13 -42 -13 -156t13 -156q29 -89 122 -89q69 0 109 61q22 32 52 32q23 0 38.5 -15t15.5 -39
q0 -16 -10 -34q-26 -51 -80.5 -81t-124.5 -30q-88 0 -149 42t-87 122z" />
    <glyph glyph-name="D" unicode="D" horiz-adv-x="625" 
d="M75 52v575q0 24 14 38.5t39 14.5h167q206 0 257 -156q20 -65 20 -184t-20 -184q-51 -156 -257 -156h-167q-25 0 -39 14t-14 38zM193 112q0 -6 6 -6h90q120 0 150 91q13 45 13 143q0 97 -13 143q-30 91 -150 91h-90q-6 0 -6 -6v-456z" />
    <glyph glyph-name="E" unicode="E" horiz-adv-x="570" 
d="M75 53v574q0 24 14 38.5t39 14.5h339q27 0 43.5 -14.5t16.5 -38.5t-16.5 -38.5t-43.5 -14.5h-268q-6 0 -6 -6v-166q0 -6 6 -6h218q27 0 43.5 -14.5t16.5 -38.5t-16.5 -38.5t-43.5 -14.5h-218q-6 0 -6 -6v-172q0 -6 6 -6h268q27 0 43.5 -14.5t16.5 -38.5t-16.5 -38.5
t-43.5 -14.5h-339q-25 0 -39 14.5t-14 38.5z" />
    <glyph glyph-name="F" unicode="F" horiz-adv-x="561" 
d="M75 57v570q0 24 14 38.5t39 14.5h339q27 0 43.5 -14.5t16.5 -38.5t-16.5 -38.5t-43.5 -14.5h-268q-6 0 -6 -6v-173q0 -6 6 -6h218q27 0 43.5 -14.5t16.5 -38.5t-16.5 -38.5t-43.5 -14.5h-218q-6 0 -6 -6v-220q0 -28 -16.5 -45t-42.5 -17t-42.5 17t-16.5 45z" />
    <glyph glyph-name="G" unicode="G" horiz-adv-x="627" 
d="M74 152q-19 62 -19 188t19 188q26 80 88.5 121.5t152.5 41.5q77 0 134 -29.5t83 -79.5q10 -18 10 -35q0 -23 -15.5 -38t-38.5 -15q-30 0 -52 30q-41 61 -121 61q-98 0 -127 -90q-13 -42 -13 -155t13 -155q29 -90 128 -90q47 0 81 22.5t47 63.5q11 33 11 87q0 6 -6 6h-78
q-24 0 -38 14t-14 36t14 36t38 14h153q22 0 35 -13t13 -35v-19q0 -97 -18 -151q-26 -81 -88 -124t-151 -43q-90 0 -152.5 41.5t-88.5 121.5z" />
    <glyph glyph-name="H" unicode="H" horiz-adv-x="657" 
d="M75 57v566q0 28 16.5 45t42.5 17t42.5 -17t16.5 -45v-221q0 -6 6 -6h259q6 0 6 6v221q0 28 16.5 45t42.5 17t42.5 -17t16.5 -45v-566q0 -28 -16.5 -45t-42.5 -17t-42.5 17t-16.5 45v227q0 6 -6 6h-259q-6 0 -6 -6v-227q0 -28 -16.5 -45t-42.5 -17t-42.5 17t-16.5 45z" />
    <glyph glyph-name="I" unicode="I" horiz-adv-x="268" 
d="M75 57v566q0 28 16.5 45t42.5 17t42.5 -17t16.5 -45v-566q0 -28 -16.5 -45t-42.5 -17t-42.5 17t-16.5 45z" />
    <glyph glyph-name="J" unicode="J" horiz-adv-x="505" 
d="M54 42q-17 17 -17 43q0 21 15 35.5t37 14.5q20 0 44 -17q33 -23 75 -23q108 0 108 129v399q0 28 16.5 45t42.5 17t42.5 -17t16.5 -45v-392q0 -115 -62 -178.5t-168 -63.5q-44 0 -86 15.5t-64 37.5z" />
    <glyph glyph-name="K" unicode="K" horiz-adv-x="606" 
d="M75 57v566q0 28 16.5 45t42.5 17t42.5 -17t16.5 -45v-276l257 313q20 25 48 25q22 0 37.5 -14.5t15.5 -36.5t-14 -39l-159 -186l190 -321q11 -19 11 -37q0 -24 -16 -40t-41 -16q-35 0 -56 35l-166 288l-107 -131v-130q0 -28 -16.5 -45t-42.5 -17t-42.5 17t-16.5 45z" />
    <glyph glyph-name="L" unicode="L" horiz-adv-x="545" 
d="M75 59v564q0 28 16.5 45t42.5 17t42.5 -17t16.5 -45v-511q0 -6 6 -6h268q27 0 43.5 -14.5t16.5 -38.5t-16.5 -38.5t-43.5 -14.5h-333q-27 0 -43 16t-16 43z" />
    <glyph glyph-name="M" unicode="M" horiz-adv-x="756" 
d="M75 53v561q0 33 18 52t48 19q25 0 40 -14t30 -47l168 -377h4l164 377q14 33 29 47t40 14q30 0 47.5 -19t17.5 -52v-561q0 -27 -15 -42.5t-39 -15.5q-25 0 -40 15.5t-15 42.5v373h-5l-124 -282q-13 -30 -27.5 -41.5t-36.5 -11.5t-37 11.5t-28 41.5l-125 282h-5v-373
q0 -27 -15 -42.5t-39 -15.5q-25 0 -40 15.5t-15 42.5z" />
    <glyph glyph-name="N" unicode="N" horiz-adv-x="657" 
d="M75 53v561q0 33 18 52t49 19q44 0 78 -58l250 -424h3v424q0 27 15 42.5t40 15.5q24 0 39 -15.5t15 -42.5v-561q0 -33 -18 -52t-48 -19q-45 0 -79 58l-249 424h-4v-424q0 -27 -15 -42.5t-39 -15.5q-25 0 -40 15.5t-15 42.5z" />
    <glyph glyph-name="O" unicode="O" horiz-adv-x="627" 
d="M55 340q0 127 20 188q26 80 87.5 121.5t150.5 41.5t151 -41.5t88 -121.5q20 -61 20 -188t-20 -188q-26 -80 -88 -121.5t-151 -41.5t-150.5 41.5t-87.5 121.5q-20 61 -20 188zM452 340q0 115 -14 156q-29 89 -125 89q-95 0 -124 -89q-14 -41 -14 -156t14 -156
q29 -89 124 -89q96 0 125 89q14 41 14 156z" />
    <glyph glyph-name="P" unicode="P" horiz-adv-x="598" 
d="M134 -5q-26 0 -42.5 17t-16.5 45v570q0 24 14 38.5t38 14.5h213q99 0 161.5 -58.5t62.5 -152.5q0 -95 -62.5 -153.5t-161.5 -58.5h-141q-6 0 -6 -6v-194q0 -28 -16.5 -45t-42.5 -17zM333 364q52 0 82.5 28.5t30.5 76.5q0 47 -30.5 76t-82.5 29h-134q-6 0 -6 -6v-198
q0 -6 6 -6h134z" />
    <glyph glyph-name="Q" unicode="Q" horiz-adv-x="627" 
d="M502 -15l-44 42q-59 -38 -145 -38q-89 0 -150.5 41.5t-87.5 121.5q-20 61 -20 188t20 188q26 80 87.5 121.5t150.5 41.5t151 -41.5t88 -121.5q20 -61 20 -188t-20 -188q-10 -29 -20 -46l48 -45q18 -18 18 -41q0 -22 -16 -38t-38 -16q-23 0 -42 19zM453 340q0 116 -14 157
q-29 89 -126 89q-96 0 -125 -89q-14 -41 -14 -157t14 -157q29 -89 125 -89q37 0 63 13l-44 42q-18 18 -18 41q0 22 16 38t38 16q23 0 42 -19l32 -32q11 38 11 147z" />
    <glyph glyph-name="R" unicode="R" horiz-adv-x="619" 
d="M507 -5q-39 0 -58 37l-123 243h-127q-6 0 -6 -6v-212q0 -28 -16.5 -45t-42.5 -17t-42.5 17t-16.5 45v570q0 24 14 38.5t39 14.5h220q94 0 155.5 -57t61.5 -146q0 -63 -32.5 -111t-88.5 -72l111 -207q9 -17 9 -36q0 -24 -15.5 -40t-41.5 -16zM344 381q47 0 75.5 26.5
t28.5 69.5q0 44 -28.5 70.5t-75.5 26.5h-145q-6 0 -6 -6v-181q0 -6 6 -6h145z" />
    <glyph glyph-name="S" unicode="S" horiz-adv-x="587" 
d="M287 -11q-118 0 -212 61q-30 19 -30 51q0 22 15 38t38 16q19 0 38 -11q82 -49 157 -49q62 0 97 26.5t35 71.5q0 39 -27.5 62t-95.5 32l-35 5q-206 27 -206 195q0 92 62.5 148t166.5 56q114 0 185 -46q30 -17 30 -48q0 -23 -14.5 -37.5t-37.5 -14.5q-17 0 -37 9
q-64 31 -127 31q-52 0 -80 -25t-28 -66q0 -38 29 -60t95 -32l34 -5q206 -28 206 -199q0 -94 -67 -151.5t-191 -57.5z" />
    <glyph glyph-name="T" unicode="T" horiz-adv-x="550" 
d="M210 574h-135q-27 0 -43.5 14.5t-16.5 38.5t16.5 38.5t43.5 14.5h400q27 0 43.5 -14.5t16.5 -38.5t-16.5 -38.5t-43.5 -14.5h-135q-6 0 -6 -6v-511q0 -28 -16.5 -45t-42.5 -17t-42.5 17t-16.5 45v511q0 6 -6 6z" />
    <glyph glyph-name="U" unicode="U" horiz-adv-x="643" 
d="M321 -11q-110 0 -180 67t-70 183v384q0 28 16.5 45t42.5 17t42.5 -17t16.5 -45v-382q0 -69 36.5 -107.5t95.5 -38.5q60 0 96.5 38.5t36.5 107.5v382q0 28 16.5 45t42.5 17t42.5 -17t16.5 -45v-384q0 -116 -70 -183t-181 -67z" />
    <glyph glyph-name="V" unicode="V" horiz-adv-x="565" 
d="M283 -5q-50 0 -73 68l-185 542q-4 11 -4 25q0 23 16 39t41 16q42 0 57 -45l149 -454h3l143 454q15 45 57 45q25 0 41 -15.5t16 -39.5q0 -9 -4 -25l-185 -542q-23 -68 -72 -68z" />
    <glyph glyph-name="W" unicode="W" horiz-adv-x="828" 
d="M806 606l-148 -549q-9 -33 -24 -47.5t-39 -14.5q-46 0 -63 62l-117 418h-2l-117 -418q-17 -62 -63 -62q-24 0 -38.5 14t-24.5 48l-148 549q-3 12 -3 23q0 25 15.5 40.5t41.5 15.5q44 0 58 -53l104 -421h2l116 421q15 53 58 53t58 -53l119 -421h2l102 421q13 53 57 53
q26 0 41.5 -15.5t15.5 -40.5q0 -11 -3 -23z" />
    <glyph glyph-name="X" unicode="X" horiz-adv-x="574" 
d="M484 -5q-30 0 -49 28l-147 228h-2l-147 -228q-19 -28 -49 -28q-25 0 -40.5 15t-15.5 38q0 20 11 36l174 268l-158 244q-12 18 -12 36q0 23 15.5 38t40.5 15q30 0 49 -28l132 -205h2l132 205q18 28 49 28q24 0 40 -15t16 -38q0 -18 -12 -36l-158 -244l174 -268
q11 -18 11 -36q0 -23 -15.5 -38t-40.5 -15z" />
    <glyph glyph-name="Y" unicode="Y" horiz-adv-x="536" 
d="M268 -5q-26 0 -42.5 17t-16.5 45v221l-180 322q-9 16 -9 32q0 23 16 38t40 15q33 0 52 -34l140 -256h3l139 256q18 34 52 34q24 0 39 -15t15 -38q0 -16 -9 -32l-180 -322v-221q0 -28 -16.5 -45t-42.5 -17z" />
    <glyph glyph-name="Z" unicode="Z" horiz-adv-x="538" 
d="M443 0h-345q-29 0 -45.5 16t-16.5 40q0 32 36 86l283 430v2h-250q-26 0 -41.5 14.5t-15.5 38.5t15.5 38.5t41.5 14.5h333q29 0 45.5 -16t16.5 -40q0 -32 -34 -82l-285 -434v-2h262q26 0 41.5 -14.5t15.5 -38.5t-15.5 -38.5t-41.5 -14.5z" />
    <glyph glyph-name="bracketleft" unicode="[" horiz-adv-x="282" 
d="M210 654h-39q-6 0 -6 -6v-640q0 -6 6 -6h39q22 0 34.5 -11.5t12.5 -31.5t-12.5 -31.5t-34.5 -11.5h-104q-20 0 -32 11.5t-12 31.5v738q0 20 12 31.5t32 11.5h104q22 0 34.5 -11.5t12.5 -31.5t-12.5 -31.5t-34.5 -11.5z" />
    <glyph glyph-name="backslash" unicode="\" horiz-adv-x="425" 
d="M265 22l-197 606q-4 14 -4 22q0 21 14 33.5t36 12.5q34 0 46 -38l197 -606q4 -14 4 -22q0 -21 -14 -33.5t-36 -12.5q-34 0 -46 38z" />
    <glyph glyph-name="bracketright" unicode="]" horiz-adv-x="282" 
d="M111 654h-39q-22 0 -34.5 11.5t-12.5 31.5t12.5 31.5t34.5 11.5h104q20 0 32 -11.5t12 -31.5v-738q0 -20 -12 -31.5t-32 -11.5h-104q-22 0 -34.5 11.5t-12.5 31.5t12.5 31.5t34.5 11.5h39q6 0 6 6v640q0 6 -6 6z" />
    <glyph glyph-name="asciicircum" unicode="^" 
d="M430 258q-34 0 -48 36l-106 249h-2l-106 -249q-14 -36 -48 -36q-21 0 -34.5 12t-13.5 33q0 12 6 27l139 311q19 44 58 44t58 -44l139 -311q6 -15 6 -27q0 -21 -13.5 -33t-34.5 -12z" />
    <glyph glyph-name="underscore" unicode="_" horiz-adv-x="500" 
d="M500 -142h-500v72h500v-72z" />
    <glyph glyph-name="grave" unicode="`" horiz-adv-x="444" 
d="M248 545q-23 0 -37 20l-51 73q-11 17 -11 32q0 18 13 29.5t31 11.5q24 0 38 -20l49 -74q11 -16 11 -32q0 -18 -12 -29t-31 -11z" />
    <glyph glyph-name="a" unicode="a" horiz-adv-x="523" 
d="M479 80q9 -16 9 -33q0 -22 -16 -37t-40 -15q-31 0 -47 23l-16 24h-1q-45 -53 -142 -53q-85 0 -130 38t-45 108q0 76 50.5 115t141.5 39h99q6 0 6 6v12q0 89 -108 89q-46 0 -88 -20q-15 -6 -29 -6q-20 0 -33 12.5t-13 33.5q0 30 28 44q57 33 147 33q101 0 151.5 -48
t50.5 -139v-152q0 -29 10 -48zM242 80q50 0 78 19.5t28 56.5v43q0 6 -6 6h-80q-55 0 -79.5 -16t-24.5 -49q0 -60 84 -60z" />
    <glyph glyph-name="b" unicode="b" horiz-adv-x="545" 
d="M129 685q25 0 40.5 -16t15.5 -43v-190h1q39 57 130 57q60 0 103 -32.5t62 -89.5q17 -52 17 -130t-17 -130q-19 -57 -62 -89.5t-103 -32.5q-90 0 -130 57h-1q-8 -51 -56 -51q-25 0 -40.5 16t-15.5 43v572q0 27 15.5 43t40.5 16zM285 393q-69 0 -90 -64q-10 -30 -10 -88
t10 -88q21 -64 90 -64q68 0 89 64q10 30 10 88t-10 88q-21 64 -89 64z" />
    <glyph glyph-name="c" unicode="c" horiz-adv-x="476" 
d="M260 -11q-73 0 -125 34.5t-73 98.5q-15 45 -15 119t15 119q21 64 73 98.5t125 34.5q98 0 152 -61q20 -21 20 -44q0 -21 -14 -35t-35 -14q-22 0 -46 24q-27 30 -76 30q-69 0 -90 -63q-10 -30 -10 -89t10 -89q21 -63 90 -63q49 0 76 30q24 24 46 24q21 0 35 -14t14 -35
q0 -23 -20 -44q-54 -61 -152 -61z" />
    <glyph glyph-name="d" unicode="d" horiz-adv-x="545" 
d="M416 685q25 0 40.5 -16t15.5 -43v-572q0 -27 -15.5 -43t-40.5 -16q-48 0 -56 51h-1q-40 -57 -130 -57q-60 0 -103 32.5t-62 89.5q-17 52 -17 130t17 130q19 57 62 89.5t103 32.5q91 0 130 -57h1v190q0 27 15.5 43t40.5 16zM260 393q-68 0 -89 -64q-10 -30 -10 -88t10 -88
q21 -64 89 -64q69 0 90 64q10 30 10 88t-10 88q-21 64 -90 64z" />
    <glyph glyph-name="e" unicode="e" horiz-adv-x="521" 
d="M266 -11q-77 0 -129.5 35t-72.5 99q-17 53 -17 118q0 69 16 119q20 63 72.5 98t124.5 35q74 0 126 -35.5t72 -97.5q16 -51 16 -116q0 -18 -10.5 -28.5t-28.5 -10.5h-269q-6 0 -6 -6q0 -18 7 -37q25 -73 109 -73q50 0 99 33q23 16 41 16q21 0 34 -13t13 -34q0 -26 -23 -44
q-71 -58 -174 -58zM361 295q0 23 -6 41q-10 29 -35 45.5t-59 16.5q-74 0 -95 -62q-6 -18 -6 -41q0 -6 6 -6h189q6 0 6 6z" />
    <glyph glyph-name="f" unicode="f" horiz-adv-x="329" 
d="M248 680h4q26 0 41.5 -13.5t15.5 -36.5q0 -22 -14.5 -36t-36.5 -14q-34 0 -46 -12t-12 -46v-34q0 -6 6 -6h55q21 0 33.5 -12t12.5 -32t-12.5 -31.5t-33.5 -11.5h-55q-6 0 -6 -6v-335q0 -27 -15.5 -43t-40.5 -16t-40.5 16t-15.5 43v335q0 6 -7 6h-16q-21 0 -33.5 11.5
t-12.5 31.5t12.5 32t33.5 12h16q7 0 7 6v32q0 86 38 123t122 37z" />
    <glyph glyph-name="g" unicode="g" horiz-adv-x="536" 
d="M238 -191q-46 0 -90 16t-65 39q-15 16 -15 37q0 20 13.5 34.5t34.5 14.5t45 -16q38 -25 83 -25q107 0 107 116v44h-1q-36 -56 -128 -56q-122 0 -161 120q-16 49 -16 119q0 72 16 121q19 58 60.5 89t100.5 31q91 0 130 -61h1v11q9 44 54 44q25 0 40.5 -16t15.5 -43v-389
q0 -230 -225 -230zM351 253q0 45 -11 76q-21 64 -85 64t-85 -64q-11 -31 -11 -76q0 -46 11 -77q21 -64 85 -64t85 64q11 31 11 77z" />
    <glyph glyph-name="h" unicode="h" horiz-adv-x="548" 
d="M424 -5q-25 0 -40.5 16t-15.5 43v234q0 48 -23.5 76.5t-67.5 28.5q-43 0 -67.5 -29t-24.5 -76v-234q0 -27 -15.5 -43t-40.5 -16t-40.5 16t-15.5 43v572q0 27 15.5 43t40.5 16t40.5 -16t15.5 -43v-189h1q40 56 127 56q76 0 121.5 -50t45.5 -129v-260q0 -27 -15.5 -43
t-40.5 -16z" />
    <glyph glyph-name="i" unicode="i" horiz-adv-x="258" 
d="M62 622q0 28 19.5 47.5t47.5 19.5t47.5 -19.5t19.5 -47.5t-19.5 -47.5t-47.5 -19.5t-47.5 19.5t-19.5 47.5zM129 -5q-25 0 -40.5 16t-15.5 43v374q0 27 15.5 43t40.5 16t40.5 -16t15.5 -43v-374q0 -27 -15.5 -43t-40.5 -16z" />
    <glyph glyph-name="j" unicode="j" horiz-adv-x="258" 
d="M62 622q0 28 19.5 47.5t47.5 19.5t47.5 -19.5t19.5 -47.5t-19.5 -47.5t-47.5 -19.5t-47.5 19.5t-19.5 47.5zM32 -180q-25 0 -38.5 13t-13.5 35q0 44 46 51q27 5 37 17t10 43v449q0 27 15.5 43t40.5 16t40.5 -16t15.5 -43v-448q0 -84 -37 -122t-116 -38z" />
    <glyph glyph-name="k" unicode="k" horiz-adv-x="520" 
d="M185 626v-346l174 187q20 20 42 20q19 0 33.5 -13t14.5 -33q0 -19 -18 -39l-101 -102l139 -221q10 -17 10 -30q0 -23 -15.5 -38.5t-38.5 -15.5q-34 0 -52 30l-120 200l-68 -73v-98q0 -27 -15.5 -43t-40.5 -16t-40.5 16t-15.5 43v572q0 27 15.5 43t40.5 16t40.5 -16
t15.5 -43z" />
    <glyph glyph-name="l" unicode="l" horiz-adv-x="291" 
d="M211 -6h-8q-71 0 -101.5 34.5t-30.5 106.5v491q0 27 15.5 43t40.5 16t40.5 -16t15.5 -43v-482q0 -25 9 -36t30 -14q47 -6 47 -49q0 -23 -14.5 -37t-43.5 -14z" />
    <glyph glyph-name="m" unicode="m" horiz-adv-x="843" 
d="M73 54v374q0 27 15.5 43t40.5 16q47 0 56 -50h1q39 56 127 56q87 0 132 -64h1q59 64 154 64q82 0 128.5 -50t46.5 -129v-260q0 -27 -15.5 -43t-40.5 -16t-40.5 16t-15.5 43v234q0 48 -23.5 76.5t-67.5 28.5q-43 0 -67.5 -29t-24.5 -76v-234q0 -27 -15.5 -43t-40.5 -16
t-40.5 16t-15.5 43v234q0 48 -23.5 76.5t-67.5 28.5q-43 0 -67.5 -29t-24.5 -76v-234q0 -27 -15.5 -43t-40.5 -16t-40.5 16t-15.5 43z" />
    <glyph glyph-name="n" unicode="n" horiz-adv-x="548" 
d="M185 437h1q40 56 127 56q76 0 121.5 -50t45.5 -129v-260q0 -27 -15.5 -43t-40.5 -16t-40.5 16t-15.5 43v234q0 48 -23.5 76.5t-67.5 28.5q-43 0 -67.5 -29t-24.5 -76v-234q0 -27 -15.5 -43t-40.5 -16t-40.5 16t-15.5 43v374q0 27 15.5 43t40.5 16q47 0 56 -50z" />
    <glyph glyph-name="o" unicode="o" horiz-adv-x="523" 
d="M262 -11q-74 0 -126.5 35t-72.5 98q-16 49 -16 119t16 119q20 63 72.5 98t126.5 35q73 0 125.5 -35t72.5 -98q16 -49 16 -119t-16 -119q-20 -63 -72.5 -98t-125.5 -35zM262 89q68 0 90 63q10 31 10 89q0 57 -10 89q-22 63 -90 63q-69 0 -91 -63q-10 -32 -10 -89
q0 -58 10 -89q22 -63 91 -63z" />
    <glyph glyph-name="p" unicode="p" horiz-adv-x="545" 
d="M129 -185q-25 0 -40.5 16t-15.5 43v554q0 27 15.5 43t40.5 16q48 0 56 -51h1q40 57 130 57q60 0 103 -32.5t62 -89.5q17 -52 17 -130t-17 -130q-19 -57 -62 -89.5t-103 -32.5q-91 0 -130 57h-1v-172q0 -27 -15.5 -43t-40.5 -16zM285 89q68 0 89 64q10 30 10 88t-10 88
q-21 64 -89 64q-69 0 -90 -64q-10 -30 -10 -88t10 -88q21 -64 90 -64z" />
    <glyph glyph-name="q" unicode="q" horiz-adv-x="545" 
d="M416 -185q-25 0 -40.5 16t-15.5 43v172h-1q-39 -57 -130 -57q-60 0 -103 32.5t-62 89.5q-17 52 -17 130t17 130q19 57 62 89.5t103 32.5q90 0 130 -57h1q8 51 56 51q25 0 40.5 -16t15.5 -43v-554q0 -27 -15.5 -43t-40.5 -16zM260 89q69 0 90 64q10 30 10 88t-10 88
q-21 64 -90 64q-68 0 -89 -64q-10 -30 -10 -88t10 -88q21 -64 89 -64z" />
    <glyph glyph-name="r" unicode="r" horiz-adv-x="420" 
d="M185 428v-2h1q17 29 49 48t73 19q33 0 61 -13q30 -16 30 -46q0 -25 -15 -41t-40 -16q-11 0 -26 5q-28 8 -45 8q-88 0 -88 -122v-214q0 -27 -15.5 -43t-40.5 -16t-40.5 16t-15.5 43v374q0 27 15.5 43t40.5 16t40.5 -16t15.5 -43z" />
    <glyph glyph-name="s" unicode="s" horiz-adv-x="498" 
d="M250 -11q-103 0 -176 49q-27 17 -27 45q0 21 14.5 36t36.5 15q16 0 35 -11q63 -39 123 -39q41 0 65 15t24 42q0 24 -17.5 36.5t-62.5 16.5l-52 5q-148 16 -148 142q0 70 49 111t138 41q79 0 146 -36q34 -19 34 -46q0 -21 -13 -35t-34 -14q-14 0 -35 11q-54 26 -104 26
q-36 0 -54.5 -14t-18.5 -36t17.5 -34.5t61.5 -16.5l52 -5q149 -15 149 -142q0 -74 -53.5 -118t-149.5 -44z" />
    <glyph glyph-name="t" unicode="t" horiz-adv-x="322" 
d="M73 395h-14q-21 0 -33.5 11.5t-12.5 31.5t12.5 32t33.5 12h14q7 0 7 6v88q0 27 16 43t41 16q24 0 39.5 -16t15.5 -43v-88q0 -6 6 -6h51q21 0 33.5 -12t12.5 -32t-12.5 -31.5t-33.5 -11.5h-51q-6 0 -6 -6v-240q0 -29 10.5 -40.5t41.5 -14.5q25 -2 38 -16t13 -34
q0 -22 -15.5 -36t-45.5 -14h-9q-78 0 -111.5 36t-33.5 116v243q0 6 -7 6z" />
    <glyph glyph-name="u" unicode="u" horiz-adv-x="544" 
d="M415 -5q-47 0 -56 50h-1q-40 -56 -126 -56q-76 0 -120.5 50t-44.5 129v260q0 27 15.5 43t40.5 16t40.5 -16t15.5 -43v-234q0 -48 22.5 -76.5t66.5 -28.5q43 0 67 28.5t24 76.5v234q0 27 15.5 43t40.5 16t40.5 -16t15.5 -43v-374q0 -27 -15.5 -43t-40.5 -16z" />
    <glyph glyph-name="v" unicode="v" horiz-adv-x="487" 
d="M243 -5q-27 0 -42.5 14.5t-31.5 53.5l-135 344q-5 13 -5 27q0 23 15.5 38t39.5 15q38 0 52 -40l109 -292h2l105 292q14 40 52 40q24 0 39 -15t15 -38q0 -14 -5 -27l-135 -344q-16 -39 -32 -53.5t-43 -14.5z" />
    <glyph glyph-name="w" unicode="w" horiz-adv-x="755" 
d="M527 -5q-49 0 -65 54l-84 269h-2l-83 -269q-17 -54 -64 -54t-65 54l-120 361q-4 11 -4 23q0 23 15.5 38.5t39.5 15.5q40 0 54 -47l85 -286h2l83 283q15 50 58 50q41 0 57 -50l90 -283h2l80 286q14 47 54 47q24 0 39.5 -15.5t15.5 -38.5q0 -9 -4 -23l-120 -361
q-17 -54 -64 -54z" />
    <glyph glyph-name="x" unicode="x" horiz-adv-x="497" 
d="M401 -5q-28 0 -47 25l-105 144h-1l-105 -144q-19 -25 -47 -25q-22 0 -36 14.5t-14 34.5q0 17 14 37l124 169l-110 151q-14 19 -14 37q0 20 14.5 34.5t35.5 14.5q28 0 47 -26l91 -125h1l91 125q19 26 47 26q21 0 35 -14.5t14 -34.5q0 -18 -14 -37l-109 -151l124 -169
q14 -20 14 -37q0 -20 -14.5 -34.5t-35.5 -14.5z" />
    <glyph glyph-name="y" unicode="y" horiz-adv-x="488" 
d="M116 -180h-7q-24 0 -38.5 14.5t-14.5 35.5t14.5 35t38.5 15q28 1 43.5 13t28.5 47l14 39l-159 389q-6 14 -6 26q0 23 16 38t40 15q37 0 52 -40l109 -289h2l103 289q14 40 52 40q23 0 38.5 -15t15.5 -38q0 -11 -5 -26l-177 -451q-31 -79 -65.5 -108t-94.5 -29z" />
    <glyph glyph-name="z" unicode="z" horiz-adv-x="471" 
d="M384 0h-298q-23 0 -37 13.5t-14 35.5q0 28 35 69l222 264v2h-192q-24 0 -37.5 14t-13.5 35t13.5 35t37.5 14h284q23 0 37 -13.5t14 -35.5q0 -29 -35 -70l-219 -263v-2h203q24 0 37.5 -14t13.5 -35t-13.5 -35t-37.5 -14z" />
    <glyph glyph-name="braceleft" unicode="{" horiz-adv-x="346" 
d="M274 -84h-26q-59 0 -89 31.5t-30 87.5v161q0 38 -10 56.5t-35 27.5q-37 13 -37 50t37 50q25 9 35 27.5t10 56.5v157q0 56 30 87.5t89 31.5h26q23 0 35 -12t12 -31q0 -40 -43 -44l-11 -1q-19 -2 -27 -12t-8 -33v-154q0 -55 -15.5 -82t-53.5 -40v-2q38 -13 53.5 -40
t15.5 -82v-158q0 -23 8 -33t27 -12l11 -1q43 -4 43 -44q0 -19 -12 -31t-35 -12z" />
    <glyph glyph-name="bar" unicode="|" horiz-adv-x="330" 
d="M165 -89q-21 0 -34 13.5t-13 37.5v732q0 24 13 37.5t34 13.5t34 -13.5t13 -37.5v-732q0 -24 -13 -37.5t-34 -13.5z" />
    <glyph glyph-name="braceright" unicode="}" horiz-adv-x="346" 
d="M98 -84h-26q-23 0 -35 12t-12 31q0 40 43 44l11 1q19 2 27 12t8 33v158q0 55 15.5 82t53.5 40v2q-38 13 -53.5 40t-15.5 82v154q0 23 -8 33t-27 12l-11 1q-43 4 -43 44q0 19 12 31t35 12h26q59 0 89 -31.5t30 -87.5v-157q0 -38 10 -56.5t35 -27.5q37 -13 37 -50t-37 -50
q-25 -9 -35 -27.5t-10 -56.5v-161q0 -56 -30 -87.5t-89 -31.5z" />
    <glyph glyph-name="asciitilde" unicode="~" 
d="M416 320q16 22 39 22q17 0 28.5 -10.5t11.5 -28.5q0 -16 -10 -32q-20 -32 -53 -51.5t-70 -19.5q-48 0 -105 35q-43 26 -69 26q-32 0 -55 -30q-16 -22 -39 -22q-17 0 -28.5 10.5t-11.5 28.5q0 16 10 32q20 32 53 51.5t70 19.5q48 0 105 -35q43 -26 69 -26q32 0 55 30z" />
    <glyph glyph-name="uni00A0" unicode="&#xa0;" horiz-adv-x="239" 
 />
    <glyph glyph-name="exclamdown" unicode="&#xa1;" horiz-adv-x="306" 
d="M153 288q25 0 40.5 -16t15.5 -44v-376q0 -27 -15.5 -43t-40.5 -16t-40.5 16t-15.5 43v376q0 28 15.5 44t40.5 16zM222 418q0 -28 -20 -48.5t-49 -20.5t-49 20.5t-20 48.5t20 48.5t49 20.5t49 -20.5t20 -48.5z" />
    <glyph glyph-name="cent" unicode="&#xa2;" 
d="M298 -105q-27 0 -27 29v67q-137 12 -175 131q-15 45 -15 119t15 119q38 119 175 131v65q0 29 27 29t27 -29v-64q83 -8 129 -60q20 -21 20 -44q0 -21 -14 -35t-35 -14q-22 0 -46 24t-54 28v-301q30 5 54 29t46 24q21 0 35 -14t14 -35q0 -23 -20 -44q-46 -52 -129 -60v-66
q0 -29 -27 -29zM205 152q15 -50 66 -61v299q-51 -10 -66 -60q-10 -30 -10 -89t10 -89z" />
    <glyph glyph-name="sterling" unicode="&#xa3;" horiz-adv-x="548" 
d="M429 0h-299q-24 0 -38 13.5t-14 35.5q0 28 30 62q26 27 26 79v79q0 6 -6 6h-21q-20 0 -32 12t-12 30t12 30t32 12h21q6 0 6 6v138q0 89 47.5 138.5t129.5 49.5q59 0 99.5 -27t54.5 -69q4 -12 4 -24q0 -22 -14 -36t-36 -14q-33 0 -49 31q-18 39 -60 39q-64 0 -64 -75v-151
q0 -6 6 -6h91q20 0 32 -12t12 -30t-12 -30t-32 -12h-91q-6 0 -6 -6v-67q0 -69 -28 -100v-2h211q24 0 38 -14t14 -36t-14 -36t-38 -14z" />
    <glyph glyph-name="currency" unicode="&#xa4;" 
d="M274 120q-61 0 -108 29l-38 -38q-15 -16 -36 -16q-20 0 -33.5 13.5t-13.5 33.5t16 36l39 39q-28 47 -28 106q0 60 29 106l-40 41q-16 16 -16 36q0 19 13.5 33t33.5 14q21 0 36 -16l39 -40q50 29 107 29t107 -29l40 40q16 16 36 16q21 0 34.5 -14t13.5 -33q0 -18 -16 -36
l-41 -41q29 -46 29 -106q0 -58 -28 -106l40 -39q16 -18 16 -36q0 -20 -13.5 -33.5t-34.5 -13.5q-20 0 -36 16l-39 38q-47 -29 -108 -29zM274 208q48 0 80 33t32 82t-32 82t-80 33t-79.5 -33t-31.5 -82t31.5 -82t79.5 -33z" />
    <glyph glyph-name="yen" unicode="&#xa5;" 
d="M486 607l-126 -259v-2h73q19 0 30.5 -11t11.5 -28t-11.5 -28t-30.5 -11h-96q-6 0 -6 -6v-41q0 -6 6 -6h96q19 0 30.5 -11t11.5 -28t-11.5 -28t-30.5 -11h-96q-6 0 -6 -6v-77q0 -27 -15.5 -43t-40.5 -16t-40.5 16t-15.5 43v77q0 6 -6 6h-96q-19 0 -30.5 11t-11.5 28
t11.5 28t30.5 11h96q6 0 6 6v41q0 6 -6 6h-96q-19 0 -30.5 11t-11.5 28t11.5 28t30.5 11h73v2l-126 259q-6 13 -6 27q0 21 15 36t39 15q34 0 51 -36l112 -255h3l111 255q17 36 51 36q23 0 37.5 -14.5t14.5 -36.5q0 -14 -6 -27z" />
    <glyph glyph-name="brokenbar" unicode="&#xa6;" horiz-adv-x="330" 
d="M165 383q-21 0 -34 13.5t-13 37.5v260q0 24 13 37.5t34 13.5q22 0 34.5 -13.5t12.5 -37.5v-260q0 -24 -12.5 -37.5t-34.5 -13.5zM165 -89q-21 0 -34 13.5t-13 37.5v261q0 24 13 38t34 14q22 0 34.5 -13.5t12.5 -38.5v-261q0 -24 -12.5 -37.5t-34.5 -13.5z" />
    <glyph glyph-name="section" unicode="&#xa7;" horiz-adv-x="579" 
d="M285 -191q-72 0 -117 34t-55 83q-2 10 -2 16q0 22 13 34.5t36 12.5q33 0 47 -37q20 -53 78 -53q36 0 56 18t20 50q0 38 -25.5 60.5t-90.5 37.5q-152 35 -152 187q0 53 24.5 95t69.5 62v1q-69 38 -69 124q0 66 48.5 111.5t125.5 45.5q67 0 112.5 -31.5t56.5 -81.5
q2 -8 2 -16q0 -22 -13 -34.5t-36 -12.5q-32 0 -45 36q-17 50 -76 50q-33 0 -52 -18t-19 -49q0 -37 24.5 -58t86.5 -37q153 -38 153 -186q0 -54 -25.5 -97t-67.5 -61v-1q72 -39 72 -125q0 -74 -49 -117t-131 -43zM289 156q43 0 68 25t25 71t-25 71t-68 25t-67.5 -25
t-24.5 -71t24.5 -71t67.5 -25z" />
    <glyph glyph-name="dieresis" unicode="&#xa8;" horiz-adv-x="444" 
d="M322 562q-25 0 -43 18t-18 43t17.5 43t43.5 18q25 0 42.5 -18t17.5 -43t-17.5 -43t-42.5 -18zM122 562q-25 0 -43 18t-18 43t17.5 43t43.5 18q25 0 42.5 -18t17.5 -43t-17.5 -43t-42.5 -18z" />
    <glyph glyph-name="copyright" unicode="&#xa9;" horiz-adv-x="826" 
d="M413 -11q-149 0 -250 100.5t-101 250.5t101 250.5t250 100.5t250 -100.5t101 -250.5t-101 -250.5t-250 -100.5zM413 65q116 0 193.5 78.5t77.5 196.5t-77.5 196.5t-193.5 78.5t-193.5 -78.5t-77.5 -196.5t77.5 -196.5t193.5 -78.5zM421 143q-122 0 -159 108
q-11 31 -11 89t11 89q37 108 159 108q83 0 121 -52q9 -13 9 -27q0 -15 -10.5 -26t-26.5 -11q-19 0 -34 14q-24 26 -57 26q-58 0 -76 -53q-7 -18 -7 -68t7 -68q18 -53 76 -53q33 0 57 26q15 14 34 14q16 0 26.5 -11t10.5 -26q0 -14 -9 -27q-38 -52 -121 -52z" />
    <glyph glyph-name="ordfeminine" unicode="&#xaa;" horiz-adv-x="347" 
d="M317 452q8 -13 8 -25q0 -17 -11 -28t-30 -11q-24 0 -37 21l-6 9h-1q-31 -31 -89 -31t-88.5 23t-30.5 66q0 92 127 92h53q6 0 6 6v6q0 39 -59 39q-31 0 -62 -13q-9 -4 -17 -4q-15 0 -24 9.5t-9 24.5q0 21 19 31q34 21 100 21q135 0 135 -113v-73q0 -22 7 -35zM159 452
q59 0 59 39v14q0 6 -6 6h-46q-54 0 -54 -31q0 -28 47 -28z" />
    <glyph glyph-name="guillemotleft" unicode="&#xab;" horiz-adv-x="550" 
d="M453 74q-19 0 -34 15l-136 137q-20 20 -20 38t20 38l136 137q15 15 34 15q18 0 29.5 -11.5t11.5 -29.5q0 -19 -16 -35l-108 -109q-5 -5 0 -10l108 -109q16 -16 16 -35q0 -18 -11.5 -29.5t-29.5 -11.5zM226 74q-19 0 -34 15l-136 137q-20 20 -20 38t20 38l136 137
q15 15 34 15q18 0 29.5 -11.5t11.5 -29.5q0 -19 -16 -35l-108 -109q-5 -5 0 -10l108 -109q16 -16 16 -35q0 -18 -11.5 -29.5t-29.5 -11.5z" />
    <glyph glyph-name="logicalnot" unicode="&#xac;" 
d="M103 324h342q22 0 35 -13t13 -35v-134q0 -24 -14 -38.5t-36 -14.5q-21 0 -35 14.5t-14 38.5v80q0 6 -6 6h-285q-24 0 -37.5 13.5t-13.5 34.5t13.5 34.5t37.5 13.5z" />
    <glyph glyph-name="uni00AD" unicode="&#xad;" horiz-adv-x="385" 
d="M294 216h-203q-25 0 -39 13.5t-14 36.5q0 22 14.5 35.5t38.5 13.5h203q24 0 38.5 -13.5t14.5 -35.5q0 -23 -14 -36.5t-39 -13.5z" />
    <glyph glyph-name="registered" unicode="&#xae;" horiz-adv-x="447" 
d="M223 301q-81 0 -136 55.5t-55 136.5q0 80 55 135.5t136 55.5t136 -55.5t55 -135.5q0 -81 -55 -136.5t-136 -55.5zM223 340q64 0 107 43.5t43 109.5q0 65 -43 108.5t-107 43.5t-107 -43.5t-43 -108.5q0 -66 43 -109.5t107 -43.5zM168 385q-24 0 -24 26v166q0 23 24 23h69
q36 0 55.5 -17.5t19.5 -47.5q0 -41 -36 -59l30 -55q4 -7 4 -15t-6.5 -14.5t-15.5 -6.5q-16 0 -23 17l-37 67h-33q-3 0 -3 -4v-54q0 -26 -24 -26zM234 511q32 0 32 24t-32 24h-39q-3 0 -3 -4v-40q0 -4 3 -4h39z" />
    <glyph glyph-name="macron" unicode="&#xaf;" horiz-adv-x="444" 
d="M114 668h215q21 0 32.5 -11t11.5 -29t-11.5 -29.5t-32.5 -11.5h-215q-21 0 -32.5 11.5t-11.5 29.5t11.5 29t32.5 11z" />
    <glyph glyph-name="degree" unicode="&#xb0;" horiz-adv-x="465" 
d="M233 395q-64 0 -106 42.5t-42 105.5t42 105.5t106 42.5q62 0 104.5 -42.5t42.5 -105.5t-42.5 -105.5t-104.5 -42.5zM233 460q34 0 56.5 24t22.5 59q0 36 -22.5 59.5t-56.5 23.5q-35 0 -57.5 -23.5t-22.5 -59.5t22.5 -59.5t57.5 -23.5z" />
    <glyph glyph-name="plusminus" unicode="&#xb1;" 
d="M274 145q-22 0 -35.5 14t-13.5 39v116q0 6 -6 6h-116q-24 0 -37.5 13.5t-13.5 34.5t13.5 34.5t37.5 13.5h116q6 0 6 6v116q0 25 13.5 39t35.5 14t36 -14t14 -39v-116q0 -6 6 -6h116q24 0 37.5 -13.5t13.5 -34.5t-13.5 -34.5t-37.5 -13.5h-116q-6 0 -6 -6v-116
q0 -25 -14 -39t-36 -14zM446 0h-343q-24 0 -37.5 13.5t-13.5 34.5t13.5 34.5t37.5 13.5h343q24 0 37.5 -13.5t13.5 -34.5t-13.5 -34.5t-37.5 -13.5z" />
    <glyph glyph-name="twosuperior" unicode="&#xb2;" horiz-adv-x="349" 
d="M274 430h-198q-20 0 -31 10.5t-11 28.5q0 22 32 57l128 140q28 29 28 60q0 20 -13 32.5t-35 12.5q-34 0 -53 -34q-14 -26 -39 -26q-17 0 -27.5 10t-10.5 26q0 12 4 21q11 32 45 54t82 22q59 0 96 -32.5t37 -85.5t-48 -104l-109 -117v-1h123q19 0 29.5 -10t10.5 -26
q0 -38 -40 -38z" />
    <glyph glyph-name="threesuperior" unicode="&#xb3;" horiz-adv-x="349" 
d="M175 422q-46 0 -80.5 17.5t-47.5 48.5q-4 9 -4 19q0 15 10.5 26t28.5 11q21 0 39 -24q20 -25 52 -25q25 0 40 15t15 39t-16 38.5t-44 14.5q-18 0 -28 10t-10 26t10 26t28 10q23 0 37 13t14 36q0 22 -13.5 35t-36.5 13q-29 0 -47 -23q-19 -22 -38 -22q-16 0 -26.5 9.5
t-10.5 25.5q0 10 4 19q11 27 43.5 45.5t77.5 18.5q61 0 97 -32t36 -82q0 -51 -45 -85v-1q21 -10 37.5 -35t16.5 -61q0 -56 -38.5 -91t-100.5 -35z" />
    <glyph glyph-name="acute" unicode="&#xb4;" horiz-adv-x="444" 
d="M233 565q-14 -20 -37 -20q-19 0 -31 11t-12 29q0 17 11 32l49 74q13 20 38 20q18 0 31 -11.5t13 -29.5q0 -16 -11 -32z" />
    <glyph glyph-name="mu" unicode="&#xb5;" horiz-adv-x="550" 
d="M185 19v-145q0 -27 -15.5 -43t-40.5 -16t-40.5 16t-15.5 43v554q0 27 15.5 43t40.5 16t40.5 -16t15.5 -43v-234q0 -48 22.5 -76.5t66.5 -28.5q43 0 67 28.5t24 76.5v234q0 27 15.5 43t40.5 16t40.5 -16t15.5 -43v-374q0 -27 -15.5 -43t-40.5 -16q-47 0 -56 50h-1
q-41 -56 -106 -56q-49 0 -72 30h-1z" />
    <glyph glyph-name="mu" unicode="&#x3bc;" horiz-adv-x="550" 
d="M185 19v-145q0 -27 -15.5 -43t-40.5 -16t-40.5 16t-15.5 43v554q0 27 15.5 43t40.5 16t40.5 -16t15.5 -43v-234q0 -48 22.5 -76.5t66.5 -28.5q43 0 67 28.5t24 76.5v234q0 27 15.5 43t40.5 16t40.5 -16t15.5 -43v-374q0 -27 -15.5 -43t-40.5 -16q-47 0 -56 50h-1
q-41 -56 -106 -56q-49 0 -72 30h-1z" />
    <glyph glyph-name="paragraph" unicode="&#xb6;" horiz-adv-x="634" 
d="M450 -134v714q0 6 -6 6h-71q-6 0 -6 -6v-714q0 -23 -13.5 -37t-35.5 -14t-35 14t-13 37v392q-89 5 -143.5 64.5t-54.5 146.5q0 91 60 151t165 60h202q23 0 35.5 -13t12.5 -35v-766q0 -23 -13.5 -37t-35.5 -14t-35 14t-13 37z" />
    <glyph glyph-name="periodcentered" unicode="&#xb7;" horiz-adv-x="248" 
d="M53 265q0 29 21 50t50 21t50 -21t21 -50t-21 -50t-50 -21t-50 21t-21 50z" />
    <glyph glyph-name="cedilla" unicode="&#xb8;" horiz-adv-x="444" 
d="M242 -137q-9 -33 -43 -33q-19 0 -32 11.5t-13 30.5q0 13 4 22l41 106q4 10 13 10h71q10 0 7 -10z" />
    <glyph glyph-name="onesuperior" unicode="&#xb9;" horiz-adv-x="349" 
d="M200 425q-19 0 -31 13t-12 34v263h-2l-32 -21q-13 -8 -25 -8q-16 0 -26.5 11.5t-10.5 27.5q0 22 23 38l53 36q31 22 56 22q23 0 36.5 -13.5t13.5 -37.5v-318q0 -21 -12 -34t-31 -13z" />
    <glyph glyph-name="ordmasculine" unicode="&#xba;" horiz-adv-x="356" 
d="M324 536q0 -39 -9 -65q-29 -87 -137 -87t-137 87q-9 26 -9 65q0 40 9 65q29 87 137 87t137 -87q9 -25 9 -65zM232 536q0 22 -5 40q-11 33 -49 33t-49 -33q-5 -18 -5 -40t5 -40q11 -33 49 -33t49 33q5 18 5 40z" />
    <glyph glyph-name="guillemotright" unicode="&#xbb;" horiz-adv-x="550" 
d="M324 74q-18 0 -29.5 11.5t-11.5 29.5q0 19 16 35l108 109q5 5 0 10l-108 109q-16 16 -16 35q0 18 11.5 29.5t29.5 11.5q19 0 34 -15l136 -137q20 -20 20 -38t-20 -38l-136 -137q-15 -15 -34 -15zM97 74q-18 0 -29.5 11.5t-11.5 29.5q0 19 16 35l108 109q5 5 0 10
l-108 109q-16 16 -16 35q0 18 11.5 29.5t29.5 11.5q19 0 34 -15l136 -137q20 -20 20 -38t-20 -38l-136 -137q-15 -15 -34 -15z" />
    <glyph glyph-name="onequarter" unicode="&#xbc;" horiz-adv-x="858" 
d="M215 269q-19 0 -31 13t-12 34v263h-2l-32 -21q-13 -8 -25 -8q-16 0 -26.5 11.5t-10.5 27.5q0 22 23 38l53 36q31 22 56 22q23 0 36.5 -13.5t13.5 -37.5v-318q0 -21 -12 -34t-31 -13zM697 -5q-18 0 -30 11.5t-12 31.5v18q0 6 -6 6h-136q-19 0 -30 10t-11 27q0 19 17 56
l106 227q13 29 40 29q17 0 28.5 -10.5t11.5 -28.5q0 -14 -5 -24l-102 -211v-1h81q6 0 6 6v49q0 21 11.5 32.5t30.5 11.5q18 0 29 -11.5t11 -32.5v-49q0 -6 6 -6h7q18 0 28 -10t10 -27t-10 -27t-28 -10h-7q-6 0 -6 -6v-18q0 -20 -11 -31.5t-29 -11.5zM237 -16q-16 0 -26 10
t-10 26q0 12 6 23l364 630q13 22 36 22q16 0 26 -10t10 -26q0 -11 -7 -23l-364 -629q-14 -23 -35 -23z" />
    <glyph glyph-name="onehalf" unicode="&#xbd;" horiz-adv-x="891" 
d="M215 269q-19 0 -31 13t-12 34v263h-2l-32 -21q-13 -8 -25 -8q-16 0 -26.5 11.5t-10.5 27.5q0 22 23 38l53 36q31 22 56 22q23 0 36.5 -13.5t13.5 -37.5v-318q0 -21 -12 -34t-31 -13zM771 0h-198q-20 0 -31 10.5t-11 28.5q0 22 32 57l128 140q28 29 28 60q0 20 -13 32.5
t-35 12.5q-34 0 -53 -34q-14 -26 -39 -26q-17 0 -27.5 10t-10.5 26q0 12 4 21q11 32 45 54t82 22q59 0 96 -32.5t37 -85.5t-48 -104l-109 -117v-1h123q19 0 29.5 -10t10.5 -26q0 -38 -40 -38zM237 -16q-16 0 -26 10t-10 26q0 12 6 23l364 630q13 22 36 22q16 0 26 -10
t10 -26q0 -11 -7 -23l-364 -629q-14 -23 -35 -23z" />
    <glyph glyph-name="threequarters" unicode="&#xbe;" horiz-adv-x="927" 
d="M751 -5q-18 0 -30 11.5t-12 31.5v18q0 6 -6 6h-136q-19 0 -30 10t-11 27q0 19 17 56l106 227q13 29 40 29q17 0 28.5 -10.5t11.5 -28.5q0 -14 -5 -24l-102 -211v-1h81q6 0 6 6v49q0 21 11.5 32.5t30.5 11.5q18 0 29 -11.5t11 -32.5v-49q0 -6 6 -6h7q18 0 28 -10t10 -27
t-10 -27t-28 -10h-7q-6 0 -6 -6v-18q0 -20 -11 -31.5t-29 -11.5zM294 -16q-16 0 -26 10t-10 26q0 12 6 23l364 630q13 22 36 22q16 0 26 -10t10 -26q0 -11 -7 -23l-364 -629q-14 -23 -35 -23zM225 266q-46 0 -80.5 17.5t-47.5 48.5q-4 9 -4 19q0 15 10.5 26t28.5 11
q21 0 39 -24q20 -25 52 -25q25 0 40 15t15 39t-16 38.5t-44 14.5q-18 0 -28 10t-10 26t10 26t28 10q23 0 37 13t14 36q0 22 -13.5 35t-36.5 13q-29 0 -47 -23q-19 -22 -38 -22q-16 0 -26.5 9.5t-10.5 25.5q0 10 4 19q11 27 43.5 45.5t77.5 18.5q61 0 97 -32t36 -82
q0 -51 -45 -85v-1q21 -10 37.5 -35t16.5 -61q0 -56 -38.5 -91t-100.5 -35z" />
    <glyph glyph-name="questiondown" unicode="&#xbf;" horiz-adv-x="464" 
d="M240 292q24 0 39.5 -14.5t15.5 -40.5v-7q0 -60 -40 -106l-55 -66q-42 -50 -42 -95q0 -32 21 -54t56 -22q64 0 86 62q16 39 52 39q23 0 37.5 -13.5t14.5 -35.5q0 -14 -4 -26q-18 -57 -67 -91.5t-122 -34.5q-84 0 -136 49.5t-52 125.5q0 73 55 138l60 71q26 31 26 60v6
q0 25 16 40t39 15zM307 418q0 -28 -20.5 -48.5t-48.5 -20.5t-48.5 20.5t-20.5 48.5t20.5 48.5t48.5 20.5t48.5 -20.5t20.5 -48.5z" />
    <glyph glyph-name="Agrave" unicode="&#xc0;" horiz-adv-x="617" 
d="M29 50q0 10 4 22l198 546q24 67 78 67q55 0 79 -67l196 -546q4 -12 4 -22q0 -25 -17 -40t-40 -15q-42 0 -56 41l-37 106h-260l-36 -106q-14 -41 -56 -41q-23 0 -40 15t-17 40zM215 247h187l-92 265h-3zM266 888l58 -66q14 -17 14 -36q0 -17 -12 -29t-29 -12q-20 0 -38 19
l-59 63q-14 15 -14 35q0 19 13 31t32 12q20 0 35 -17z" />
    <glyph glyph-name="Aacute" unicode="&#xc1;" horiz-adv-x="617" 
d="M29 50q0 10 4 22l198 546q24 67 78 67q55 0 79 -67l196 -546q4 -12 4 -22q0 -25 -17 -40t-40 -15q-42 0 -56 41l-37 106h-260l-36 -106q-14 -41 -56 -41q-23 0 -40 15t-17 40zM215 247h187l-92 265h-3zM298 822l58 66q15 17 35 17q19 0 32 -12t13 -31q0 -20 -14 -35
l-59 -63q-18 -19 -38 -19q-17 0 -29 12t-12 29q0 19 14 36z" />
    <glyph glyph-name="Acircumflex" unicode="&#xc2;" horiz-adv-x="617" 
d="M29 50q0 10 4 22l198 546q24 67 78 67q55 0 79 -67l196 -546q4 -12 4 -22q0 -25 -17 -40t-40 -15q-42 0 -56 41l-37 106h-260l-36 -106q-14 -41 -56 -41q-23 0 -40 15t-17 40zM215 247h187l-92 265h-3zM405 740q-17 0 -32 15l-64 68h-2l-64 -68q-15 -15 -32 -15
q-14 0 -24 9.5t-10 23.5t12 29l64 76q27 32 55 32t55 -32l64 -76q12 -15 12 -29t-10 -23.5t-24 -9.5z" />
    <glyph glyph-name="Atilde" unicode="&#xc3;" horiz-adv-x="617" 
d="M29 50q0 10 4 22l198 546q24 67 78 67q55 0 79 -67l196 -546q4 -12 4 -22q0 -25 -17 -40t-40 -15q-42 0 -56 41l-37 106h-260l-36 -106q-14 -41 -56 -41q-23 0 -40 15t-17 40zM215 247h187l-92 265h-3zM365 758q-29 0 -66 22q-28 18 -43 18q-16 0 -34 -19
q-15 -15 -32 -15q-16 0 -26 9.5t-10 25.5q0 15 11 31q37 50 86 50q29 0 66 -22q28 -18 43 -18q16 0 34 19q15 15 32 15q16 0 26 -9.5t10 -25.5q0 -15 -11 -31q-37 -50 -86 -50z" />
    <glyph glyph-name="Adieresis" unicode="&#xc4;" horiz-adv-x="617" 
d="M29 50q0 10 4 22l198 546q24 67 78 67q55 0 79 -67l196 -546q4 -12 4 -22q0 -25 -17 -40t-40 -15q-42 0 -56 41l-37 106h-260l-36 -106q-14 -41 -56 -41q-23 0 -40 15t-17 40zM215 247h187l-92 265h-3zM409 760q-25 0 -43 18t-18 43t18 42.5t43 17.5t42.5 -17.5
t17.5 -42.5t-17.5 -43t-42.5 -18zM209 760q-25 0 -43 18t-18 43t18 42.5t43 17.5t42.5 -17.5t17.5 -42.5t-17.5 -43t-42.5 -18z" />
    <glyph glyph-name="Aring" unicode="&#xc5;" horiz-adv-x="617" 
d="M29 50q0 10 4 22l198 546q24 67 78 67q55 0 79 -67l196 -546q4 -12 4 -22q0 -25 -17 -40t-40 -15q-42 0 -56 41l-37 106h-260l-36 -106q-14 -41 -56 -41q-23 0 -40 15t-17 40zM215 247h187l-92 265h-3zM308 721q-44 0 -73 28.5t-29 71.5t29 71.5t73 28.5t73 -28.5
t29 -71.5t-29 -71.5t-73 -28.5zM308 770q22 0 35.5 14t13.5 37t-13.5 37t-35.5 14t-35.5 -14t-13.5 -37t13.5 -37t35.5 -14z" />
    <glyph glyph-name="AE" unicode="&#xc6;" horiz-adv-x="922" 
d="M819 0h-340q-24 0 -38 14t-14 38v84q0 6 -6 6h-221l-56 -110q-19 -37 -55 -37q-24 0 -41 15.5t-17 40.5q0 15 9 33l286 543q27 53 85 53h408q27 0 43.5 -14.5t16.5 -38.5t-16.5 -38.5t-43.5 -14.5h-268q-6 0 -6 -6v-166q0 -6 6 -6h218q27 0 43.5 -14.5t16.5 -38.5
t-16.5 -38.5t-43.5 -14.5h-218q-6 0 -6 -6v-172q0 -6 6 -6h268q27 0 43.5 -14.5t16.5 -38.5t-16.5 -38.5t-43.5 -14.5zM424 575l-170 -328h167q6 0 6 6v322h-3z" />
    <glyph glyph-name="Ccedilla" unicode="&#xc7;" horiz-adv-x="567" 
d="M305 -137q-9 -33 -43 -33q-19 0 -32 11.5t-13 30.5q0 13 4 22l38 99q-141 22 -185 160q-19 64 -19 187t19 187q26 80 87 122t149 42q70 0 124.5 -30t80.5 -81q10 -18 10 -35q0 -23 -15.5 -38t-38.5 -15q-30 0 -52 32q-40 61 -109 61q-93 0 -122 -89q-13 -42 -13 -156
t13 -156q29 -89 122 -89q69 0 109 61q22 32 52 32q23 0 38.5 -15t15.5 -39q0 -16 -10 -34q-46 -92 -165 -108z" />
    <glyph glyph-name="Egrave" unicode="&#xc8;" horiz-adv-x="570" 
d="M75 53v574q0 24 14 38.5t39 14.5h339q27 0 43.5 -14.5t16.5 -38.5t-16.5 -38.5t-43.5 -14.5h-268q-6 0 -6 -6v-166q0 -6 6 -6h218q27 0 43.5 -14.5t16.5 -38.5t-16.5 -38.5t-43.5 -14.5h-218q-6 0 -6 -6v-172q0 -6 6 -6h268q27 0 43.5 -14.5t16.5 -38.5t-16.5 -38.5
t-43.5 -14.5h-339q-25 0 -39 14.5t-14 38.5zM267 888l58 -66q14 -17 14 -36q0 -17 -12 -29t-29 -12q-20 0 -38 19l-59 63q-14 15 -14 35q0 19 13 31t32 12q20 0 35 -17z" />
    <glyph glyph-name="Eacute" unicode="&#xc9;" horiz-adv-x="570" 
d="M75 53v574q0 24 14 38.5t39 14.5h339q27 0 43.5 -14.5t16.5 -38.5t-16.5 -38.5t-43.5 -14.5h-268q-6 0 -6 -6v-166q0 -6 6 -6h218q27 0 43.5 -14.5t16.5 -38.5t-16.5 -38.5t-43.5 -14.5h-218q-6 0 -6 -6v-172q0 -6 6 -6h268q27 0 43.5 -14.5t16.5 -38.5t-16.5 -38.5
t-43.5 -14.5h-339q-25 0 -39 14.5t-14 38.5zM255 822l58 66q15 17 35 17q19 0 32 -12t13 -31q0 -20 -14 -35l-59 -63q-18 -19 -38 -19q-17 0 -29 12t-12 29q0 19 14 36z" />
    <glyph glyph-name="Ecircumflex" unicode="&#xca;" horiz-adv-x="570" 
d="M75 53v574q0 24 14 38.5t39 14.5h339q27 0 43.5 -14.5t16.5 -38.5t-16.5 -38.5t-43.5 -14.5h-268q-6 0 -6 -6v-166q0 -6 6 -6h218q27 0 43.5 -14.5t16.5 -38.5t-16.5 -38.5t-43.5 -14.5h-218q-6 0 -6 -6v-172q0 -6 6 -6h268q27 0 43.5 -14.5t16.5 -38.5t-16.5 -38.5
t-43.5 -14.5h-339q-25 0 -39 14.5t-14 38.5zM396 740q-17 0 -32 15l-64 68h-2l-64 -68q-15 -15 -32 -15q-14 0 -24 9.5t-10 23.5t12 29l64 76q27 32 55 32t55 -32l64 -76q12 -15 12 -29t-10 -23.5t-24 -9.5z" />
    <glyph glyph-name="Edieresis" unicode="&#xcb;" horiz-adv-x="570" 
d="M75 53v574q0 24 14 38.5t39 14.5h339q27 0 43.5 -14.5t16.5 -38.5t-16.5 -38.5t-43.5 -14.5h-268q-6 0 -6 -6v-166q0 -6 6 -6h218q27 0 43.5 -14.5t16.5 -38.5t-16.5 -38.5t-43.5 -14.5h-218q-6 0 -6 -6v-172q0 -6 6 -6h268q27 0 43.5 -14.5t16.5 -38.5t-16.5 -38.5
t-43.5 -14.5h-339q-25 0 -39 14.5t-14 38.5zM397 760q-25 0 -43 18t-18 43t18 42.5t43 17.5t42.5 -17.5t17.5 -42.5t-17.5 -43t-42.5 -18zM197 760q-25 0 -43 18t-18 43t18 42.5t43 17.5t42.5 -17.5t17.5 -42.5t-17.5 -43t-42.5 -18z" />
    <glyph glyph-name="Igrave" unicode="&#xcc;" horiz-adv-x="268" 
d="M75 57v566q0 28 16.5 45t42.5 17t42.5 -17t16.5 -45v-566q0 -28 -16.5 -45t-42.5 -17t-42.5 17t-16.5 45zM97 888l58 -66q14 -17 14 -36q0 -17 -12 -29t-29 -12q-20 0 -38 19l-59 63q-14 15 -14 35q0 19 13 31t32 12q20 0 35 -17z" />
    <glyph glyph-name="Iacute" unicode="&#xcd;" horiz-adv-x="268" 
d="M75 57v566q0 28 16.5 45t42.5 17t42.5 -17t16.5 -45v-566q0 -28 -16.5 -45t-42.5 -17t-42.5 17t-16.5 45zM116 822l58 66q15 17 35 17q19 0 32 -12t13 -31q0 -20 -14 -35l-59 -63q-18 -19 -38 -19q-17 0 -29 12t-12 29q0 19 14 36z" />
    <glyph glyph-name="Icircumflex" unicode="&#xce;" horiz-adv-x="268" 
d="M75 57v566q0 28 16.5 45t42.5 17t42.5 -17t16.5 -45v-566q0 -28 -16.5 -45t-42.5 -17t-42.5 17t-16.5 45zM231 740q-17 0 -32 15l-64 68h-2l-64 -68q-15 -15 -32 -15q-14 0 -24 9.5t-10 23.5t12 29l64 76q27 32 55 32t55 -32l64 -76q12 -15 12 -29t-10 -23.5t-24 -9.5z
" />
    <glyph glyph-name="Idieresis" unicode="&#xcf;" horiz-adv-x="268" 
d="M75 57v566q0 28 16.5 45t42.5 17t42.5 -17t16.5 -45v-566q0 -28 -16.5 -45t-42.5 -17t-42.5 17t-16.5 45zM235 760q-25 0 -43 18t-18 43t18 42.5t43 17.5t42.5 -17.5t17.5 -42.5t-17.5 -43t-42.5 -18zM35 760q-25 0 -43 18t-18 43t18 42.5t43 17.5t42.5 -17.5t17.5 -42.5
t-17.5 -43t-42.5 -18z" />
    <glyph glyph-name="Eth" unicode="&#xd0;" horiz-adv-x="625" 
d="M69 298h-9q-22 0 -34.5 12.5t-12.5 32.5t12.5 32.5t34.5 12.5h9q6 0 6 6v233q0 24 14 38.5t39 14.5h166q207 0 258 -156q20 -65 20 -184t-20 -184q-51 -156 -258 -156h-166q-25 0 -39 14t-14 38v240q0 6 -6 6zM268 298h-69q-6 0 -6 -6v-180q0 -6 6 -6h89q121 0 151 91
q13 45 13 143q0 97 -13 143q-30 91 -151 91h-89q-6 0 -6 -6v-174q0 -6 6 -6h69q22 0 34.5 -12.5t12.5 -32.5t-12.5 -32.5t-34.5 -12.5z" />
    <glyph glyph-name="Ntilde" unicode="&#xd1;" horiz-adv-x="657" 
d="M75 53v561q0 33 18 52t49 19q44 0 78 -58l250 -424h3v424q0 27 15 42.5t40 15.5q24 0 39 -15.5t15 -42.5v-561q0 -33 -18 -52t-48 -19q-45 0 -79 58l-249 424h-4v-424q0 -27 -15 -42.5t-39 -15.5q-25 0 -40 15.5t-15 42.5zM387 758q-29 0 -66 22q-28 18 -43 18
q-16 0 -34 -19q-15 -15 -32 -15q-16 0 -26 9.5t-10 25.5q0 15 11 31q38 50 86 50q29 0 66 -22q28 -18 43 -18q16 0 34 19q15 15 32 15q16 0 26 -9.5t10 -25.5q0 -15 -11 -31q-37 -50 -86 -50z" />
    <glyph glyph-name="Ograve" unicode="&#xd2;" horiz-adv-x="627" 
d="M55 340q0 127 20 188q26 80 87.5 121.5t150.5 41.5t151 -41.5t88 -121.5q20 -61 20 -188t-20 -188q-26 -80 -88 -121.5t-151 -41.5t-150.5 41.5t-87.5 121.5q-20 61 -20 188zM452 340q0 115 -14 156q-29 89 -125 89q-95 0 -124 -89q-14 -41 -14 -156t14 -156
q29 -89 124 -89q96 0 125 89q14 41 14 156zM287 888l58 -66q14 -17 14 -36q0 -17 -12 -29t-29 -12q-20 0 -38 19l-59 63q-14 15 -14 35q0 19 13 31t32 12q20 0 35 -17z" />
    <glyph glyph-name="Oacute" unicode="&#xd3;" horiz-adv-x="627" 
d="M55 340q0 127 20 188q26 80 87.5 121.5t150.5 41.5t151 -41.5t88 -121.5q20 -61 20 -188t-20 -188q-26 -80 -88 -121.5t-151 -41.5t-150.5 41.5t-87.5 121.5q-20 61 -20 188zM452 340q0 115 -14 156q-29 89 -125 89q-95 0 -124 -89q-14 -41 -14 -156t14 -156
q29 -89 124 -89q96 0 125 89q14 41 14 156zM281 822l58 66q15 17 35 17q19 0 32 -12t13 -31q0 -20 -14 -35l-59 -63q-18 -19 -38 -19q-17 0 -29 12t-12 29q0 19 14 36z" />
    <glyph glyph-name="Ocircumflex" unicode="&#xd4;" horiz-adv-x="627" 
d="M55 340q0 127 20 188q26 80 87.5 121.5t150.5 41.5t151 -41.5t88 -121.5q20 -61 20 -188t-20 -188q-26 -80 -88 -121.5t-151 -41.5t-150.5 41.5t-87.5 121.5q-20 61 -20 188zM452 340q0 115 -14 156q-29 89 -125 89q-95 0 -124 -89q-14 -41 -14 -156t14 -156
q29 -89 124 -89q96 0 125 89q14 41 14 156zM410 740q-17 0 -32 15l-64 68h-2l-64 -68q-15 -15 -32 -15q-14 0 -24 9.5t-10 23.5t12 29l64 76q27 32 55 32t55 -32l64 -76q12 -15 12 -29t-10 -23.5t-24 -9.5z" />
    <glyph glyph-name="Otilde" unicode="&#xd5;" horiz-adv-x="627" 
d="M55 340q0 127 20 188q26 80 87.5 121.5t150.5 41.5t151 -41.5t88 -121.5q20 -61 20 -188t-20 -188q-26 -80 -88 -121.5t-151 -41.5t-150.5 41.5t-87.5 121.5q-20 61 -20 188zM452 340q0 115 -14 156q-29 89 -125 89q-95 0 -124 -89q-14 -41 -14 -156t14 -156
q29 -89 124 -89q96 0 125 89q14 41 14 156zM368 758q-29 0 -66 22q-28 18 -43 18q-16 0 -34 -19q-15 -15 -32 -15q-16 0 -26 9.5t-10 25.5q0 15 11 31q38 50 86 50q29 0 66 -22q28 -18 43 -18q16 0 34 19q15 15 32 15q16 0 26 -9.5t10 -25.5q0 -15 -11 -31q-37 -50 -86 -50z
" />
    <glyph glyph-name="Odieresis" unicode="&#xd6;" horiz-adv-x="627" 
d="M55 340q0 127 20 188q26 80 87.5 121.5t150.5 41.5t151 -41.5t88 -121.5q20 -61 20 -188t-20 -188q-26 -80 -88 -121.5t-151 -41.5t-150.5 41.5t-87.5 121.5q-20 61 -20 188zM452 340q0 115 -14 156q-29 89 -125 89q-95 0 -124 -89q-14 -41 -14 -156t14 -156
q29 -89 124 -89q96 0 125 89q14 41 14 156zM414 760q-26 0 -43.5 18t-17.5 43t18 42.5t43 17.5t42.5 -17.5t17.5 -42.5t-17.5 -43t-42.5 -18zM214 760q-26 0 -43.5 18t-17.5 43t18 42.5t43 17.5t42.5 -17.5t17.5 -42.5t-17.5 -43t-42.5 -18z" />
    <glyph glyph-name="multiply" unicode="&#xd7;" 
d="M373 112l-95 94q-4 4 -8 0l-94 -94q-18 -18 -38 -18t-33 13.5t-13 32.5q0 21 18 38l94 94q4 4 0 8l-94 95q-18 17 -18 38q0 19 13 32.5t33 13.5t38 -18l94 -95q4 -4 8 0l95 94q18 18 38 18t33 -13.5t13 -32.5q0 -21 -18 -38l-94 -94q-4 -4 0 -8l94 -94q18 -18 18 -38
q0 -19 -13 -32.5t-33 -13.5t-38 18z" />
    <glyph glyph-name="Oslash" unicode="&#xd8;" horiz-adv-x="627" 
d="M135 -16q-13 -19 -31 -19q-14 0 -23.5 8.5t-9.5 23.5q0 11 7 22l35 58q-25 33 -38 75q-20 61 -20 188t20 188q26 80 87.5 121.5t150.5 41.5q85 0 147 -40l27 45q12 20 30 20q14 0 23.5 -9t9.5 -24q0 -11 -6 -22l-33 -55q26 -34 41 -78q20 -61 20 -188t-20 -188
q-26 -80 -88 -121.5t-151 -41.5q-88 0 -150 41zM174 340q0 -111 11 -149l216 366q-35 29 -88 29q-96 0 -125 -89q-14 -41 -14 -157zM453 340q0 111 -13 153l-217 -368q34 -31 90 -31q97 0 126 89q14 41 14 157z" />
    <glyph glyph-name="Ugrave" unicode="&#xd9;" horiz-adv-x="643" 
d="M321 -11q-110 0 -180 67t-70 183v384q0 28 16.5 45t42.5 17t42.5 -17t16.5 -45v-382q0 -69 36.5 -107.5t95.5 -38.5q60 0 96.5 38.5t36.5 107.5v382q0 28 16.5 45t42.5 17t42.5 -17t16.5 -45v-384q0 -116 -70 -183t-181 -67zM291 888l58 -66q14 -17 14 -36q0 -17 -12 -29
t-29 -12q-20 0 -38 19l-59 63q-14 15 -14 35q0 19 13 31t32 12q20 0 35 -17z" />
    <glyph glyph-name="Uacute" unicode="&#xda;" horiz-adv-x="643" 
d="M321 -11q-110 0 -180 67t-70 183v384q0 28 16.5 45t42.5 17t42.5 -17t16.5 -45v-382q0 -69 36.5 -107.5t95.5 -38.5q60 0 96.5 38.5t36.5 107.5v382q0 28 16.5 45t42.5 17t42.5 -17t16.5 -45v-384q0 -116 -70 -183t-181 -67zM299 822l58 66q15 17 35 17q19 0 32 -12
t13 -31q0 -20 -14 -35l-59 -63q-18 -19 -38 -19q-17 0 -29 12t-12 29q0 19 14 36z" />
    <glyph glyph-name="Ucircumflex" unicode="&#xdb;" horiz-adv-x="643" 
d="M321 -11q-110 0 -180 67t-70 183v384q0 28 16.5 45t42.5 17t42.5 -17t16.5 -45v-382q0 -69 36.5 -107.5t95.5 -38.5q60 0 96.5 38.5t36.5 107.5v382q0 28 16.5 45t42.5 17t42.5 -17t16.5 -45v-384q0 -116 -70 -183t-181 -67zM418 740q-17 0 -32 15l-64 68h-2l-64 -68
q-15 -15 -32 -15q-14 0 -24 9.5t-10 23.5t12 29l64 76q27 32 55 32t55 -32l64 -76q12 -15 12 -29t-10 -23.5t-24 -9.5z" />
    <glyph glyph-name="Udieresis" unicode="&#xdc;" horiz-adv-x="643" 
d="M321 -11q-110 0 -180 67t-70 183v384q0 28 16.5 45t42.5 17t42.5 -17t16.5 -45v-382q0 -69 36.5 -107.5t95.5 -38.5q60 0 96.5 38.5t36.5 107.5v382q0 28 16.5 45t42.5 17t42.5 -17t16.5 -45v-384q0 -116 -70 -183t-181 -67zM422 760q-26 0 -43.5 18t-17.5 43t18 42.5
t43 17.5t42.5 -17.5t17.5 -42.5t-17.5 -43t-42.5 -18zM222 760q-26 0 -43.5 18t-17.5 43t18 42.5t43 17.5t42.5 -17.5t17.5 -42.5t-17.5 -43t-42.5 -18z" />
    <glyph glyph-name="Yacute" unicode="&#xdd;" horiz-adv-x="536" 
d="M268 -5q-26 0 -42.5 17t-16.5 45v221l-180 322q-9 16 -9 32q0 23 16 38t40 15q33 0 52 -34l140 -256h3l139 256q18 34 52 34q24 0 39 -15t15 -38q0 -16 -9 -32l-180 -322v-221q0 -28 -16.5 -45t-42.5 -17zM246 822l58 66q15 17 35 17q19 0 32 -12t13 -31q0 -20 -14 -35
l-59 -63q-18 -19 -38 -19q-17 0 -29 12t-12 29q0 19 14 36z" />
    <glyph glyph-name="Thorn" unicode="&#xde;" horiz-adv-x="598" 
d="M340 143h-141q-6 0 -6 -6v-80q0 -28 -16.5 -45t-42.5 -17t-42.5 17t-16.5 45v566q0 28 16.5 45t42.5 17t42.5 -17t16.5 -45v-51q0 -6 6 -6h141q99 0 161.5 -58.5t62.5 -152.5q0 -95 -62.5 -153.5t-161.5 -58.5zM333 250q52 0 82.5 28.5t30.5 76.5q0 47 -30.5 76t-82.5 29
h-134q-6 0 -6 -6v-198q0 -6 6 -6h134z" />
    <glyph glyph-name="germandbls" unicode="&#xdf;" horiz-adv-x="553" 
d="M308 364q-24 0 -38 14t-14 36t14 35.5t38 14.5q66 2 66 63q0 65 -90 65q-54 0 -76.5 -23.5t-22.5 -77.5v-437q0 -27 -15.5 -43t-40.5 -16t-40.5 16t-15.5 43v434q0 203 210 203q99 0 151 -42t52 -119t-61 -113v-2q39 -19 56 -71q13 -41 13 -120q0 -86 -13 -127
q-32 -100 -176 -100q-23 0 -36 13.5t-13 35.5q0 44 49 49q58 6 70 45q7 21 7 85q0 63 -9 94q-14 45 -65 45z" />
    <glyph glyph-name="agrave" unicode="&#xe0;" horiz-adv-x="523" 
d="M479 80q9 -16 9 -33q0 -22 -16 -37t-40 -15q-31 0 -47 23l-16 24h-1q-45 -53 -142 -53q-85 0 -130 38t-45 108q0 76 50.5 115t141.5 39h99q6 0 6 6v12q0 89 -108 89q-46 0 -88 -20q-15 -6 -29 -6q-20 0 -33 12.5t-13 33.5q0 30 28 44q57 33 147 33q101 0 151.5 -48
t50.5 -139v-152q0 -29 10 -48zM242 80q50 0 78 19.5t28 56.5v43q0 6 -6 6h-80q-55 0 -79.5 -16t-24.5 -49q0 -60 84 -60zM277 545q-23 0 -37 20l-51 73q-11 17 -11 32q0 18 13 29.5t31 11.5q24 0 38 -20l49 -74q11 -16 11 -32q0 -18 -12 -29t-31 -11z" />
    <glyph glyph-name="aacute" unicode="&#xe1;" horiz-adv-x="523" 
d="M479 80q9 -16 9 -33q0 -22 -16 -37t-40 -15q-31 0 -47 23l-16 24h-1q-45 -53 -142 -53q-85 0 -130 38t-45 108q0 76 50.5 115t141.5 39h99q6 0 6 6v12q0 89 -108 89q-46 0 -88 -20q-15 -6 -29 -6q-20 0 -33 12.5t-13 33.5q0 30 28 44q57 33 147 33q101 0 151.5 -48
t50.5 -139v-152q0 -29 10 -48zM242 80q50 0 78 19.5t28 56.5v43q0 6 -6 6h-80q-55 0 -79.5 -16t-24.5 -49q0 -60 84 -60zM301 565q-14 -20 -37 -20q-19 0 -31 11t-12 29q0 17 11 32l49 74q13 20 38 20q18 0 31 -11.5t13 -29.5q0 -16 -11 -32z" />
    <glyph glyph-name="acircumflex" unicode="&#xe2;" horiz-adv-x="523" 
d="M479 80q9 -16 9 -33q0 -22 -16 -37t-40 -15q-31 0 -47 23l-16 24h-1q-45 -53 -142 -53q-85 0 -130 38t-45 108q0 76 50.5 115t141.5 39h99q6 0 6 6v12q0 89 -108 89q-46 0 -88 -20q-15 -6 -29 -6q-20 0 -33 12.5t-13 33.5q0 30 28 44q57 33 147 33q101 0 151.5 -48
t50.5 -139v-152q0 -29 10 -48zM242 80q50 0 78 19.5t28 56.5v43q0 6 -6 6h-80q-55 0 -79.5 -16t-24.5 -49q0 -60 84 -60zM358 543q-17 0 -32 15l-64 68h-2l-64 -68q-15 -15 -32 -15q-14 0 -24 9.5t-10 23.5t12 29l64 76q27 32 55 32t55 -32l64 -76q12 -15 12 -29t-10 -23.5
t-24 -9.5z" />
    <glyph glyph-name="atilde" unicode="&#xe3;" horiz-adv-x="523" 
d="M479 80q9 -16 9 -33q0 -22 -16 -37t-40 -15q-31 0 -47 23l-16 24h-1q-45 -53 -142 -53q-85 0 -130 38t-45 108q0 76 50.5 115t141.5 39h99q6 0 6 6v12q0 89 -108 89q-46 0 -88 -20q-15 -6 -29 -6q-20 0 -33 12.5t-13 33.5q0 30 28 44q57 33 147 33q101 0 151.5 -48
t50.5 -139v-152q0 -29 10 -48zM242 80q50 0 78 19.5t28 56.5v43q0 6 -6 6h-80q-55 0 -79.5 -16t-24.5 -49q0 -60 84 -60zM318 566q-29 0 -66 22q-28 18 -43 18q-16 0 -34 -19q-15 -15 -32 -15q-16 0 -26 9.5t-10 25.5q0 15 11 31q38 50 86 50q29 0 66 -22q28 -18 43 -18
q16 0 34 19q15 15 32 15q16 0 26 -9.5t10 -25.5q0 -15 -11 -31q-38 -50 -86 -50z" />
    <glyph glyph-name="adieresis" unicode="&#xe4;" horiz-adv-x="523" 
d="M479 80q9 -16 9 -33q0 -22 -16 -37t-40 -15q-31 0 -47 23l-16 24h-1q-45 -53 -142 -53q-85 0 -130 38t-45 108q0 76 50.5 115t141.5 39h99q6 0 6 6v12q0 89 -108 89q-46 0 -88 -20q-15 -6 -29 -6q-20 0 -33 12.5t-13 33.5q0 30 28 44q57 33 147 33q101 0 151.5 -48
t50.5 -139v-152q0 -29 10 -48zM242 80q50 0 78 19.5t28 56.5v43q0 6 -6 6h-80q-55 0 -79.5 -16t-24.5 -49q0 -60 84 -60zM361 562q-25 0 -43 18t-18 43t18 43t43 18t42.5 -18t17.5 -43t-17.5 -43t-42.5 -18zM161 562q-25 0 -43 18t-18 43t18 43t43 18t42.5 -18t17.5 -43
t-17.5 -43t-42.5 -18z" />
    <glyph glyph-name="aring" unicode="&#xe5;" horiz-adv-x="523" 
d="M479 80q9 -16 9 -33q0 -22 -16 -37t-40 -15q-31 0 -47 23l-16 24h-1q-45 -53 -142 -53q-85 0 -130 38t-45 108q0 76 50.5 115t141.5 39h99q6 0 6 6v12q0 89 -108 89q-46 0 -88 -20q-15 -6 -29 -6q-20 0 -33 12.5t-13 33.5q0 30 28 44q57 33 147 33q101 0 151.5 -48
t50.5 -139v-152q0 -29 10 -48zM242 80q50 0 78 19.5t28 56.5v43q0 6 -6 6h-80q-55 0 -79.5 -16t-24.5 -49q0 -60 84 -60zM266 529q-44 0 -73 28.5t-29 71.5t29 71.5t73 28.5t73 -28.5t29 -71.5t-29 -71.5t-73 -28.5zM266 578q22 0 35.5 14t13.5 37t-13.5 37t-35.5 14
t-35.5 -14t-13.5 -37t13.5 -37t35.5 -14z" />
    <glyph glyph-name="ae" unicode="&#xe6;" horiz-adv-x="815" 
d="M564 -11q-113 0 -167 68h-2q-32 -38 -71.5 -53t-97.5 -15q-85 0 -130 38t-45 108q0 76 50.5 115t141.5 39h99q6 0 6 6v12q0 89 -108 89q-41 0 -88 -20q-15 -6 -29 -6q-20 0 -33 12.5t-13 33.5q0 30 28 44q57 33 147 33q107 0 155 -56h1q54 56 147 56q74 0 125.5 -35
t72.5 -98q15 -48 15 -116q0 -18 -10.5 -28.5t-28.5 -10.5h-269q-6 0 -6 -6q0 -17 7 -37q24 -73 110 -73q49 0 98 33q23 16 41 16q21 0 34 -13t13 -34q0 -26 -23 -44q-71 -58 -170 -58zM460 289h189q6 0 6 6q0 23 -6 41q-10 29 -35.5 45.5t-59.5 16.5t-59 -16.5t-35 -45.5
q-6 -18 -6 -41q0 -6 6 -6zM242 80q50 0 78 19.5t28 56.5v43q0 6 -6 6h-80q-55 0 -79.5 -16t-24.5 -49q0 -60 84 -60z" />
    <glyph glyph-name="ccedilla" unicode="&#xe7;" horiz-adv-x="476" 
d="M255 -137q-9 -33 -43 -33q-19 0 -32 11.5t-13 30.5q0 13 4 22l38 100q-53 10 -91.5 43t-55.5 85q-15 45 -15 119t15 119q21 64 73 98.5t125 34.5q98 0 152 -61q20 -21 20 -44q0 -21 -14 -35t-35 -14q-22 0 -46 24q-27 30 -76 30q-69 0 -90 -63q-10 -30 -10 -89t10 -89
q21 -63 90 -63q49 0 76 30q24 24 46 24q21 0 35 -14t14 -35q0 -23 -20 -44q-41 -46 -112 -58z" />
    <glyph glyph-name="egrave" unicode="&#xe8;" horiz-adv-x="521" 
d="M266 -11q-77 0 -129.5 35t-72.5 99q-17 53 -17 118q0 69 16 119q20 63 72.5 98t124.5 35q74 0 126 -35.5t72 -97.5q16 -51 16 -116q0 -18 -10.5 -28.5t-28.5 -10.5h-269q-6 0 -6 -6q0 -18 7 -37q25 -73 109 -73q50 0 99 33q23 16 41 16q21 0 34 -13t13 -34q0 -26 -23 -44
q-71 -58 -174 -58zM361 295q0 23 -6 41q-10 29 -35 45.5t-59 16.5q-74 0 -95 -62q-6 -18 -6 -41q0 -6 6 -6h189q6 0 6 6zM263 545q-23 0 -37 20l-51 73q-11 17 -11 32q0 18 13 29.5t31 11.5q24 0 38 -20l49 -74q11 -16 11 -32q0 -18 -12 -29t-31 -11z" />
    <glyph glyph-name="eacute" unicode="&#xe9;" horiz-adv-x="521" 
d="M266 -11q-77 0 -129.5 35t-72.5 99q-17 53 -17 118q0 69 16 119q20 63 72.5 98t124.5 35q74 0 126 -35.5t72 -97.5q16 -51 16 -116q0 -18 -10.5 -28.5t-28.5 -10.5h-269q-6 0 -6 -6q0 -18 7 -37q25 -73 109 -73q50 0 99 33q23 16 41 16q21 0 34 -13t13 -34q0 -26 -23 -44
q-71 -58 -174 -58zM361 295q0 23 -6 41q-10 29 -35 45.5t-59 16.5q-74 0 -95 -62q-6 -18 -6 -41q0 -6 6 -6h189q6 0 6 6zM294 565q-14 -20 -37 -20q-19 0 -31 11t-12 29q0 17 11 32l49 74q13 20 38 20q18 0 31 -11.5t13 -29.5q0 -16 -11 -32z" />
    <glyph glyph-name="ecircumflex" unicode="&#xea;" horiz-adv-x="521" 
d="M266 -11q-77 0 -129.5 35t-72.5 99q-17 53 -17 118q0 69 16 119q20 63 72.5 98t124.5 35q74 0 126 -35.5t72 -97.5q16 -51 16 -116q0 -18 -10.5 -28.5t-28.5 -10.5h-269q-6 0 -6 -6q0 -18 7 -37q25 -73 109 -73q50 0 99 33q23 16 41 16q21 0 34 -13t13 -34q0 -26 -23 -44
q-71 -58 -174 -58zM361 295q0 23 -6 41q-10 29 -35 45.5t-59 16.5q-74 0 -95 -62q-6 -18 -6 -41q0 -6 6 -6h189q6 0 6 6zM357 543q-17 0 -32 15l-64 68h-2l-64 -68q-15 -15 -32 -15q-14 0 -24 9.5t-10 23.5t12 29l64 76q27 32 55 32t55 -32l64 -76q12 -15 12 -29t-10 -23.5
t-24 -9.5z" />
    <glyph glyph-name="edieresis" unicode="&#xeb;" horiz-adv-x="521" 
d="M266 -11q-77 0 -129.5 35t-72.5 99q-17 53 -17 118q0 69 16 119q20 63 72.5 98t124.5 35q74 0 126 -35.5t72 -97.5q16 -51 16 -116q0 -18 -10.5 -28.5t-28.5 -10.5h-269q-6 0 -6 -6q0 -18 7 -37q25 -73 109 -73q50 0 99 33q23 16 41 16q21 0 34 -13t13 -34q0 -26 -23 -44
q-71 -58 -174 -58zM361 295q0 23 -6 41q-10 29 -35 45.5t-59 16.5q-74 0 -95 -62q-6 -18 -6 -41q0 -6 6 -6h189q6 0 6 6zM361 562q-25 0 -43 18t-18 43t18 43t43 18t42.5 -18t17.5 -43t-17.5 -43t-42.5 -18zM161 562q-25 0 -43 18t-18 43t18 43t43 18t42.5 -18t17.5 -43
t-17.5 -43t-42.5 -18z" />
    <glyph glyph-name="igrave" unicode="&#xec;" horiz-adv-x="258" 
d="M129 -5q-25 0 -40.5 16t-15.5 43v374q0 27 15.5 43t40.5 16t40.5 -16t15.5 -43v-374q0 -27 -15.5 -43t-40.5 -16zM120 545q-23 0 -37 20l-51 73q-11 16 -11 32q0 18 13 29.5t31 11.5q24 0 38 -20l49 -74q11 -16 11 -32q0 -18 -12 -29t-31 -11z" />
    <glyph glyph-name="iacute" unicode="&#xed;" horiz-adv-x="258" 
d="M129 -5q-25 0 -40.5 16t-15.5 43v374q0 27 15.5 43t40.5 16t40.5 -16t15.5 -43v-374q0 -27 -15.5 -43t-40.5 -16zM177 565q-14 -20 -37 -20q-19 0 -31 11t-12 29q0 17 11 32l49 74q13 20 38 20q18 0 31 -11.5t13 -29.5q0 -16 -11 -32z" />
    <glyph glyph-name="icircumflex" unicode="&#xee;" horiz-adv-x="258" 
d="M129 -5q-25 0 -40.5 16t-15.5 43v374q0 27 15.5 43t40.5 16t40.5 -16t15.5 -43v-374q0 -27 -15.5 -43t-40.5 -16zM226 543q-17 0 -32 15l-64 68h-2l-64 -68q-15 -15 -32 -15q-14 0 -24 9.5t-10 23.5t12 29l64 76q27 32 55 32t55 -32l64 -76q12 -15 12 -29t-10 -23.5
t-24 -9.5z" />
    <glyph glyph-name="idieresis" unicode="&#xef;" horiz-adv-x="258" 
d="M129 -5q-25 0 -40.5 16t-15.5 43v374q0 27 15.5 43t40.5 16t40.5 -16t15.5 -43v-374q0 -27 -15.5 -43t-40.5 -16zM230 562q-25 0 -43 18t-18 43t17.5 43t43.5 18q25 0 42.5 -18t17.5 -43t-17.5 -43t-42.5 -18zM30 562q-25 0 -43 18t-18 43t17.5 43t43.5 18q25 0 42.5 -18
t17.5 -43t-17.5 -43t-42.5 -18z" />
    <glyph glyph-name="eth" unicode="&#xf0;" horiz-adv-x="523" 
d="M385 567l-44 -13l19 -26q117 -160 117 -287q0 -71 -15 -118q-20 -63 -72.5 -98.5t-127.5 -35.5t-126.5 34.5t-72.5 96.5q-16 50 -16 106t15 106q20 59 63 93t103 34q43 0 68 -18h2l-61 82l-68 -20q-12 -4 -20 -4q-16 0 -27 11t-11 28q0 31 31 39l45 13l-9 13
q-11 16 -11 33q0 21 15 35.5t38 14.5q24 0 43 -26l28 -39l67 20q12 4 20 4q16 0 27 -11t11 -28q0 -31 -31 -39zM262 89q72 0 92 64q9 27 9 73q0 43 -10 73q-20 64 -91 64t-91 -64q-10 -30 -10 -73t10 -73q20 -64 91 -64z" />
    <glyph glyph-name="ntilde" unicode="&#xf1;" horiz-adv-x="548" 
d="M185 437h1q40 56 127 56q76 0 121.5 -50t45.5 -129v-260q0 -27 -15.5 -43t-40.5 -16t-40.5 16t-15.5 43v234q0 48 -23.5 76.5t-67.5 28.5q-43 0 -67.5 -29t-24.5 -76v-234q0 -27 -15.5 -43t-40.5 -16t-40.5 16t-15.5 43v374q0 27 15.5 43t40.5 16q47 0 56 -50zM330 566
q-29 0 -66 22q-28 18 -43 18q-16 0 -34 -19q-15 -15 -32 -15q-16 0 -26 9.5t-10 25.5q0 15 11 31q38 50 86 50q29 0 66 -22q28 -18 43 -18q16 0 34 19q15 15 32 15q16 0 26 -9.5t10 -25.5q0 -15 -11 -31q-38 -50 -86 -50z" />
    <glyph glyph-name="ograve" unicode="&#xf2;" horiz-adv-x="523" 
d="M262 -11q-74 0 -126.5 35t-72.5 98q-16 49 -16 119t16 119q20 63 72.5 98t126.5 35q73 0 125.5 -35t72.5 -98q16 -49 16 -119t-16 -119q-20 -63 -72.5 -98t-125.5 -35zM262 89q68 0 90 63q10 31 10 89q0 57 -10 89q-22 63 -90 63q-69 0 -91 -63q-10 -32 -10 -89
q0 -58 10 -89q22 -63 91 -63zM263 545q-23 0 -37 20l-51 73q-11 17 -11 32q0 18 13 29.5t31 11.5q24 0 38 -20l49 -74q11 -16 11 -32q0 -18 -12 -29t-31 -11z" />
    <glyph glyph-name="oacute" unicode="&#xf3;" horiz-adv-x="523" 
d="M262 -11q-74 0 -126.5 35t-72.5 98q-16 49 -16 119t16 119q20 63 72.5 98t126.5 35q73 0 125.5 -35t72.5 -98q16 -49 16 -119t-16 -119q-20 -63 -72.5 -98t-125.5 -35zM262 89q68 0 90 63q10 31 10 89q0 57 -10 89q-22 63 -90 63q-69 0 -91 -63q-10 -32 -10 -89
q0 -58 10 -89q22 -63 91 -63zM296 565q-14 -20 -37 -20q-19 0 -31 11t-12 29q0 17 11 32l49 74q13 20 38 20q18 0 31 -11.5t13 -29.5q0 -16 -11 -32z" />
    <glyph glyph-name="ocircumflex" unicode="&#xf4;" horiz-adv-x="523" 
d="M262 -11q-74 0 -126.5 35t-72.5 98q-16 49 -16 119t16 119q20 63 72.5 98t126.5 35q73 0 125.5 -35t72.5 -98q16 -49 16 -119t-16 -119q-20 -63 -72.5 -98t-125.5 -35zM262 89q68 0 90 63q10 31 10 89q0 57 -10 89q-22 63 -90 63q-69 0 -91 -63q-10 -32 -10 -89
q0 -58 10 -89q22 -63 91 -63zM358 543q-17 0 -32 15l-64 68h-2l-64 -68q-15 -15 -32 -15q-14 0 -24 9.5t-10 23.5t12 29l64 76q27 32 55 32t55 -32l64 -76q12 -15 12 -29t-10 -23.5t-24 -9.5z" />
    <glyph glyph-name="otilde" unicode="&#xf5;" horiz-adv-x="523" 
d="M262 -11q-74 0 -126.5 35t-72.5 98q-16 49 -16 119t16 119q20 63 72.5 98t126.5 35q73 0 125.5 -35t72.5 -98q16 -49 16 -119t-16 -119q-20 -63 -72.5 -98t-125.5 -35zM262 89q68 0 90 63q10 31 10 89q0 57 -10 89q-22 63 -90 63q-69 0 -91 -63q-10 -32 -10 -89
q0 -58 10 -89q22 -63 91 -63zM318 566q-29 0 -66 22q-28 18 -43 18q-16 0 -34 -19q-15 -15 -32 -15q-16 0 -26 9.5t-10 25.5q0 15 11 31q38 50 86 50q29 0 66 -22q28 -18 43 -18q16 0 34 19q15 15 32 15q16 0 26 -9.5t10 -25.5q0 -15 -11 -31q-38 -50 -86 -50z" />
    <glyph glyph-name="odieresis" unicode="&#xf6;" horiz-adv-x="523" 
d="M262 -11q-74 0 -126.5 35t-72.5 98q-16 49 -16 119t16 119q20 63 72.5 98t126.5 35q73 0 125.5 -35t72.5 -98q16 -49 16 -119t-16 -119q-20 -63 -72.5 -98t-125.5 -35zM262 89q68 0 90 63q10 31 10 89q0 57 -10 89q-22 63 -90 63q-69 0 -91 -63q-10 -32 -10 -89
q0 -58 10 -89q22 -63 91 -63zM362 562q-25 0 -43 18t-18 43t17.5 43t43.5 18q25 0 42.5 -18t17.5 -43t-17.5 -43t-42.5 -18zM162 562q-25 0 -43 18t-18 43t17.5 43t43.5 18q25 0 42.5 -18t17.5 -43t-17.5 -43t-42.5 -18z" />
    <glyph glyph-name="divide" unicode="&#xf7;" 
d="M209 450q0 27 19 46.5t46 19.5t46.5 -19.5t19.5 -46.5t-19.5 -46.5t-46.5 -19.5t-46 19.5t-19 46.5zM446 228h-343q-24 0 -37.5 13.5t-13.5 34.5t13.5 34.5t37.5 13.5h343q24 0 37.5 -13.5t13.5 -34.5t-13.5 -34.5t-37.5 -13.5zM208 102q0 27 19.5 46.5t46.5 19.5
t46.5 -19.5t19.5 -46.5t-19.5 -46.5t-46.5 -19.5t-46.5 19.5t-19.5 46.5z" />
    <glyph glyph-name="oslash" unicode="&#xf8;" horiz-adv-x="523" 
d="M261 -11q-73 0 -123 32l-31 -43q-9 -13 -23 -13q-10 0 -17.5 7t-7.5 17t7 20l33 47q-24 29 -36 67q-16 49 -16 118t16 118q21 64 72.5 99t125.5 35q72 0 122 -32l31 43q11 14 24 14q10 0 17.5 -7t7.5 -17q0 -9 -8 -20l-33 -47q25 -29 38 -68q16 -49 16 -118t-16 -118
q-21 -65 -72.5 -99.5t-126.5 -34.5zM160 241q0 -56 10 -87v-2l152 223q-25 19 -61 19q-71 0 -91 -66q-10 -31 -10 -87zM261 88q72 0 92 66q10 31 10 87t-10 87q-1 0 -1 1l-151 -222q23 -19 60 -19z" />
    <glyph glyph-name="ugrave" unicode="&#xf9;" horiz-adv-x="544" 
d="M415 -5q-47 0 -56 50h-1q-40 -56 -126 -56q-76 0 -120.5 50t-44.5 129v260q0 27 15.5 43t40.5 16t40.5 -16t15.5 -43v-234q0 -48 22.5 -76.5t66.5 -28.5q43 0 67 28.5t24 76.5v234q0 27 15.5 43t40.5 16t40.5 -16t15.5 -43v-374q0 -27 -15.5 -43t-40.5 -16zM271 545
q-23 0 -37 20l-51 73q-11 17 -11 32q0 18 13 29.5t31 11.5q24 0 38 -20l49 -74q11 -16 11 -32q0 -18 -12 -29t-31 -11z" />
    <glyph glyph-name="uacute" unicode="&#xfa;" horiz-adv-x="544" 
d="M415 -5q-47 0 -56 50h-1q-40 -56 -126 -56q-76 0 -120.5 50t-44.5 129v260q0 27 15.5 43t40.5 16t40.5 -16t15.5 -43v-234q0 -48 22.5 -76.5t66.5 -28.5q43 0 67 28.5t24 76.5v234q0 27 15.5 43t40.5 16t40.5 -16t15.5 -43v-374q0 -27 -15.5 -43t-40.5 -16zM309 565
q-14 -20 -37 -20q-19 0 -31 11t-12 29q0 17 11 32l49 74q13 20 38 20q18 0 31 -11.5t13 -29.5q0 -16 -11 -32z" />
    <glyph glyph-name="ucircumflex" unicode="&#xfb;" horiz-adv-x="544" 
d="M415 -5q-47 0 -56 50h-1q-40 -56 -126 -56q-76 0 -120.5 50t-44.5 129v260q0 27 15.5 43t40.5 16t40.5 -16t15.5 -43v-234q0 -48 22.5 -76.5t66.5 -28.5q43 0 67 28.5t24 76.5v234q0 27 15.5 43t40.5 16t40.5 -16t15.5 -43v-374q0 -27 -15.5 -43t-40.5 -16zM369 543
q-17 0 -32 15l-64 68h-2l-64 -68q-15 -15 -32 -15q-14 0 -24 9.5t-10 23.5t12 29l64 76q27 32 55 32t55 -32l64 -76q12 -15 12 -29t-10 -23.5t-24 -9.5z" />
    <glyph glyph-name="udieresis" unicode="&#xfc;" horiz-adv-x="544" 
d="M415 -5q-47 0 -56 50h-1q-40 -56 -126 -56q-76 0 -120.5 50t-44.5 129v260q0 27 15.5 43t40.5 16t40.5 -16t15.5 -43v-234q0 -48 22.5 -76.5t66.5 -28.5q43 0 67 28.5t24 76.5v234q0 27 15.5 43t40.5 16t40.5 -16t15.5 -43v-374q0 -27 -15.5 -43t-40.5 -16zM372 562
q-25 0 -43 18t-18 43t17.5 43t43.5 18q25 0 42.5 -18t17.5 -43t-17.5 -43t-42.5 -18zM172 562q-25 0 -43 18t-18 43t17.5 43t43.5 18q25 0 42.5 -18t17.5 -43t-17.5 -43t-42.5 -18z" />
    <glyph glyph-name="yacute" unicode="&#xfd;" horiz-adv-x="488" 
d="M116 -180h-7q-24 0 -38.5 14.5t-14.5 35.5t14.5 35t38.5 15q28 1 43.5 13t28.5 47l14 39l-159 389q-6 14 -6 26q0 23 16 38t40 15q37 0 52 -40l109 -289h2l103 289q14 40 52 40q23 0 38.5 -15t15.5 -38q0 -11 -5 -26l-177 -451q-31 -79 -65.5 -108t-94.5 -29zM283 565
q-14 -20 -37 -20q-19 0 -31 11t-12 29q0 17 11 32l49 74q13 20 38 20q18 0 31 -11.5t13 -29.5q0 -16 -11 -32z" />
    <glyph glyph-name="thorn" unicode="&#xfe;" horiz-adv-x="545" 
d="M73 -126v752q0 27 15.5 43t40.5 16t40.5 -16t15.5 -43v-190h1q40 57 130 57q60 0 103 -32.5t62 -89.5q17 -52 17 -130t-17 -130q-19 -57 -62 -89.5t-103 -32.5q-91 0 -130 57h-1v-172q0 -27 -15.5 -43t-40.5 -16t-40.5 16t-15.5 43zM285 89q68 0 89 64q10 30 10 88
t-10 88q-21 64 -89 64q-69 0 -90 -64q-10 -30 -10 -88t10 -88q21 -64 90 -64z" />
    <glyph glyph-name="ydieresis" unicode="&#xff;" horiz-adv-x="488" 
d="M116 -180h-7q-24 0 -38.5 14.5t-14.5 35.5t14.5 35t38.5 15q28 1 43.5 13t28.5 47l14 39l-159 389q-6 14 -6 26q0 23 16 38t40 15q37 0 52 -40l109 -289h2l103 289q14 40 52 40q23 0 38.5 -15t15.5 -38q0 -11 -5 -26l-177 -451q-31 -79 -65.5 -108t-94.5 -29zM348 562
q-25 0 -43 18t-18 43t17.5 43t43.5 18q25 0 42.5 -18t17.5 -43t-17.5 -43t-42.5 -18zM148 562q-25 0 -43 18t-18 43t17.5 43t43.5 18q25 0 42.5 -18t17.5 -43t-17.5 -43t-42.5 -18z" />
    <glyph glyph-name="Amacron" unicode="&#x100;" horiz-adv-x="617" 
d="M29 50q0 10 4 22l198 546q24 67 78 67q55 0 79 -67l196 -546q4 -12 4 -22q0 -25 -17 -40t-40 -15q-42 0 -56 41l-37 106h-260l-36 -106q-14 -41 -56 -41q-23 0 -40 15t-17 40zM215 247h187l-92 265h-3zM201 863h215q21 0 32.5 -11t11.5 -29t-11.5 -29.5t-32.5 -11.5h-215
q-21 0 -32.5 11.5t-11.5 29.5t11.5 29t32.5 11z" />
    <glyph glyph-name="amacron" unicode="&#x101;" horiz-adv-x="523" 
d="M479 80q9 -16 9 -33q0 -22 -16 -37t-40 -15q-31 0 -47 23l-16 24h-1q-45 -53 -142 -53q-85 0 -130 38t-45 108q0 76 50.5 115t141.5 39h99q6 0 6 6v12q0 89 -108 89q-46 0 -88 -20q-15 -6 -29 -6q-20 0 -33 12.5t-13 33.5q0 30 28 44q57 33 147 33q101 0 151.5 -48
t50.5 -139v-152q0 -29 10 -48zM242 80q50 0 78 19.5t28 56.5v43q0 6 -6 6h-80q-55 0 -79.5 -16t-24.5 -49q0 -60 84 -60zM154 668h215q21 0 32.5 -11t11.5 -29t-11.5 -29.5t-32.5 -11.5h-215q-21 0 -32.5 11.5t-11.5 29.5t11.5 29t32.5 11z" />
    <glyph glyph-name="Abreve" unicode="&#x102;" horiz-adv-x="617" 
d="M29 50q0 10 4 22l198 546q24 67 78 67q55 0 79 -67l196 -546q4 -12 4 -22q0 -25 -17 -40t-40 -15q-42 0 -56 41l-37 106h-260l-36 -106q-14 -41 -56 -41q-23 0 -40 15t-17 40zM215 247h187l-92 265h-3zM308 751q-60 0 -100 33t-40 77q0 14 8.5 23t23.5 9q21 0 34 -26
q20 -41 74 -41q55 0 73 41q13 26 35 26q14 0 23 -9t9 -23q0 -44 -40 -77t-100 -33z" />
    <glyph glyph-name="abreve" unicode="&#x103;" horiz-adv-x="523" 
d="M479 80q9 -16 9 -33q0 -22 -16 -37t-40 -15q-31 0 -47 23l-16 24h-1q-45 -53 -142 -53q-85 0 -130 38t-45 108q0 76 50.5 115t141.5 39h99q6 0 6 6v12q0 89 -108 89q-46 0 -88 -20q-15 -6 -29 -6q-20 0 -33 12.5t-13 33.5q0 30 28 44q57 33 147 33q101 0 151.5 -48
t50.5 -139v-152q0 -29 10 -48zM242 80q50 0 78 19.5t28 56.5v43q0 6 -6 6h-80q-55 0 -79.5 -16t-24.5 -49q0 -60 84 -60zM262 554q-60 0 -100 33t-40 77q0 14 8.5 23t23.5 9q21 0 34 -26q20 -41 74 -41q55 0 73 41q13 26 35 26q14 0 23 -9t9 -23q0 -44 -40 -77t-100 -33z
" />
    <glyph glyph-name="Aogonek" unicode="&#x104;" horiz-adv-x="617" 
d="M475 36l-37 106h-260l-36 -106q-14 -41 -56 -41q-23 0 -40 15t-17 40q0 10 4 22l198 546q24 67 78 67q55 0 79 -67l196 -546q4 -12 4 -22q0 -25 -21 -45q-40 -37 -54.5 -56t-14.5 -33q0 -21 20 -21q4 0 16 4t18 4q14 0 23.5 -11t9.5 -26q0 -23 -21 -35q-26 -16 -62 -16
q-43 0 -68.5 23t-25.5 63q0 67 75 119q-5 6 -8 16zM307 512l-92 -265h187l-92 265h-3z" />
    <glyph glyph-name="aogonek" unicode="&#x105;" horiz-adv-x="523" 
d="M369 42h-1q-45 -53 -142 -53q-85 0 -130 38t-45 108q0 76 50.5 115t141.5 39h99q6 0 6 6v12q0 89 -108 89q-46 0 -88 -20q-15 -6 -29 -6q-20 0 -33 12.5t-13 33.5q0 30 28 44q57 33 147 33q101 0 151.5 -48t50.5 -139v-152q0 -29 10 -48l15 -26q9 -16 9 -33
q0 -25 -25 -46q-73 -59 -73 -85q0 -21 20 -21q4 0 16 4t18 4q15 0 24 -11t9 -26q0 -24 -21 -35q-24 -16 -62 -16q-43 0 -68.5 23t-25.5 63q0 61 86 116zM242 80q50 0 78 19.5t28 56.5v43q0 6 -6 6h-80q-55 0 -79.5 -16t-24.5 -49q0 -60 84 -60z" />
    <glyph glyph-name="Cacute" unicode="&#x106;" horiz-adv-x="567" 
d="M74 153q-19 64 -19 187t19 187q26 80 87 122t149 42q70 0 124.5 -30t80.5 -81q10 -18 10 -35q0 -23 -15.5 -38t-38.5 -15q-30 0 -52 32q-40 61 -109 61q-93 0 -122 -89q-13 -42 -13 -156t13 -156q29 -89 122 -89q69 0 109 61q22 32 52 32q23 0 38.5 -15t15.5 -39
q0 -16 -10 -34q-26 -51 -80.5 -81t-124.5 -30q-88 0 -149 42t-87 122zM269 822l58 66q15 17 35 17q19 0 32 -12t13 -31q0 -20 -14 -35l-59 -63q-18 -19 -38 -19q-17 0 -29 12t-12 29q0 19 14 36z" />
    <glyph glyph-name="cacute" unicode="&#x107;" horiz-adv-x="476" 
d="M260 -11q-73 0 -125 34.5t-73 98.5q-15 45 -15 119t15 119q21 64 73 98.5t125 34.5q98 0 152 -61q20 -21 20 -44q0 -21 -14 -35t-35 -14q-22 0 -46 24q-27 30 -76 30q-69 0 -90 -63q-10 -30 -10 -89t10 -89q21 -63 90 -63q49 0 76 30q24 24 46 24q21 0 35 -14t14 -35
q0 -23 -20 -44q-54 -61 -152 -61zM286 565q-14 -20 -37 -20q-19 0 -31 11t-12 29q0 17 11 32l49 74q13 20 38 20q18 0 31 -11.5t13 -29.5q0 -16 -11 -32z" />
    <glyph glyph-name="Ccircumflex" unicode="&#x108;" horiz-adv-x="567" 
d="M74 153q-19 64 -19 187t19 187q26 80 87 122t149 42q70 0 124.5 -30t80.5 -81q10 -18 10 -35q0 -23 -15.5 -38t-38.5 -15q-30 0 -52 32q-40 61 -109 61q-93 0 -122 -89q-13 -42 -13 -156t13 -156q29 -89 122 -89q69 0 109 61q22 32 52 32q23 0 38.5 -15t15.5 -39
q0 -16 -10 -34q-26 -51 -80.5 -81t-124.5 -30q-88 0 -149 42t-87 122zM405 740q-17 0 -32 15l-64 68h-2l-64 -68q-15 -15 -32 -15q-14 0 -24 9.5t-10 23.5t12 29l64 76q27 32 55 32t55 -32l64 -76q12 -15 12 -29t-10 -23.5t-24 -9.5z" />
    <glyph glyph-name="ccircumflex" unicode="&#x109;" horiz-adv-x="476" 
d="M260 -11q-73 0 -125 34.5t-73 98.5q-15 45 -15 119t15 119q21 64 73 98.5t125 34.5q98 0 152 -61q20 -21 20 -44q0 -21 -14 -35t-35 -14q-22 0 -46 24q-27 30 -76 30q-69 0 -90 -63q-10 -30 -10 -89t10 -89q21 -63 90 -63q49 0 76 30q24 24 46 24q21 0 35 -14t14 -35
q0 -23 -20 -44q-54 -61 -152 -61zM354 543q-17 0 -32 15l-64 68h-2l-64 -68q-15 -15 -32 -15q-14 0 -24 9.5t-10 23.5t12 29l64 76q27 32 55 32t55 -32l64 -76q12 -15 12 -29t-10 -23.5t-24 -9.5z" />
    <glyph glyph-name="Cdotaccent" unicode="&#x10a;" horiz-adv-x="567" 
d="M74 153q-19 64 -19 187t19 187q26 80 87 122t149 42q70 0 124.5 -30t80.5 -81q10 -18 10 -35q0 -23 -15.5 -38t-38.5 -15q-30 0 -52 32q-40 61 -109 61q-93 0 -122 -89q-13 -42 -13 -156t13 -156q29 -89 122 -89q69 0 109 61q22 32 52 32q23 0 38.5 -15t15.5 -39
q0 -16 -10 -34q-26 -51 -80.5 -81t-124.5 -30q-88 0 -149 42t-87 122zM240 818q0 28 19.5 47.5t47.5 19.5t47.5 -19.5t19.5 -47.5t-19.5 -47.5t-47.5 -19.5t-47.5 19.5t-19.5 47.5z" />
    <glyph glyph-name="cdotaccent" unicode="&#x10b;" horiz-adv-x="476" 
d="M260 -11q-73 0 -125 34.5t-73 98.5q-15 45 -15 119t15 119q21 64 73 98.5t125 34.5q98 0 152 -61q20 -21 20 -44q0 -21 -14 -35t-35 -14q-22 0 -46 24q-27 30 -76 30q-69 0 -90 -63q-10 -30 -10 -89t10 -89q21 -63 90 -63q49 0 76 30q24 24 46 24q21 0 35 -14t14 -35
q0 -23 -20 -44q-54 -61 -152 -61zM191 622q0 28 19.5 47.5t47.5 19.5t47.5 -19.5t19.5 -47.5t-19.5 -47.5t-47.5 -19.5t-47.5 19.5t-19.5 47.5z" />
    <glyph glyph-name="Ccaron" unicode="&#x10c;" horiz-adv-x="567" 
d="M74 153q-19 64 -19 187t19 187q26 80 87 122t149 42q70 0 124.5 -30t80.5 -81q10 -18 10 -35q0 -23 -15.5 -38t-38.5 -15q-30 0 -52 32q-40 61 -109 61q-93 0 -122 -89q-13 -42 -13 -156t13 -156q29 -89 122 -89q69 0 109 61q22 32 52 32q23 0 38.5 -15t15.5 -39
q0 -16 -10 -34q-26 -51 -80.5 -81t-124.5 -30q-88 0 -149 42t-87 122zM308 734q-28 0 -55 32l-64 76q-12 15 -12 29t10 23.5t24 9.5q17 0 32 -15l64 -68h2l64 68q15 15 32 15q14 0 24 -9.5t10 -23.5t-12 -29l-64 -76q-27 -32 -55 -32z" />
    <glyph glyph-name="ccaron" unicode="&#x10d;" horiz-adv-x="476" 
d="M260 -11q-73 0 -125 34.5t-73 98.5q-15 45 -15 119t15 119q21 64 73 98.5t125 34.5q98 0 152 -61q20 -21 20 -44q0 -21 -14 -35t-35 -14q-22 0 -46 24q-27 30 -76 30q-69 0 -90 -63q-10 -30 -10 -89t10 -89q21 -63 90 -63q49 0 76 30q24 24 46 24q21 0 35 -14t14 -35
q0 -23 -20 -44q-54 -61 -152 -61zM256 538q-28 0 -55 32l-64 76q-12 15 -12 29t10 23.5t24 9.5q17 0 32 -15l64 -68h2l64 68q15 15 32 15q14 0 24 -9.5t10 -23.5t-12 -29l-64 -76q-27 -32 -55 -32z" />
    <glyph glyph-name="Dcaron" unicode="&#x10e;" horiz-adv-x="625" 
d="M75 52v575q0 24 14 38.5t39 14.5h167q206 0 257 -156q20 -65 20 -184t-20 -184q-51 -156 -257 -156h-167q-25 0 -39 14t-14 38zM193 112q0 -6 6 -6h90q120 0 150 91q13 45 13 143q0 97 -13 143q-30 91 -150 91h-90q-6 0 -6 -6v-456zM296 734q-28 0 -55 32l-64 76
q-12 15 -12 29t10 23.5t24 9.5q17 0 32 -15l64 -68h2l64 68q15 15 32 15q14 0 24 -9.5t10 -23.5t-12 -29l-64 -76q-27 -32 -55 -32z" />
    <glyph glyph-name="dcaron" unicode="&#x10f;" horiz-adv-x="545" 
d="M416 685q25 0 40.5 -16t15.5 -43v-572q0 -27 -15.5 -43t-40.5 -16q-48 0 -56 51h-1q-40 -57 -130 -57q-60 0 -103 32.5t-62 89.5q-17 52 -17 130t17 130q19 57 62 89.5t103 32.5q91 0 130 -57h1v190q0 27 15.5 43t40.5 16zM260 393q-68 0 -89 -64q-10 -30 -10 -88t10 -88
q21 -64 89 -64q69 0 90 64q10 30 10 88t-10 88q-21 64 -90 64zM591 550q-12 -39 -46 -39q-21 0 -34.5 12.5t-13.5 33.5q0 11 3 22l22 67q12 39 46 39q21 0 34.5 -12.5t13.5 -33.5q0 -11 -3 -22z" />
    <glyph glyph-name="Dcroat" unicode="&#x110;" horiz-adv-x="625" 
d="M69 298h-9q-22 0 -34.5 12.5t-12.5 32.5t12.5 32.5t34.5 12.5h9q6 0 6 6v233q0 24 14 38.5t39 14.5h166q207 0 258 -156q20 -65 20 -184t-20 -184q-51 -156 -258 -156h-166q-25 0 -39 14t-14 38v240q0 6 -6 6zM268 298h-69q-6 0 -6 -6v-180q0 -6 6 -6h89q121 0 151 91
q13 45 13 143q0 97 -13 143q-30 91 -151 91h-89q-6 0 -6 -6v-174q0 -6 6 -6h69q22 0 34.5 -12.5t12.5 -32.5t-12.5 -32.5t-34.5 -12.5z" />
    <glyph glyph-name="dcroat" unicode="&#x111;" horiz-adv-x="545" 
d="M486 542h-8q-6 0 -6 -6v-482q0 -27 -15.5 -43t-40.5 -16q-48 0 -56 51h-1q-40 -57 -130 -57q-60 0 -103 32.5t-62 89.5q-17 52 -17 130t17 130q19 57 62 89.5t103 32.5q91 0 130 -57h1v100q0 6 -6 6h-83q-20 0 -32 11.5t-12 30.5t12 30.5t32 11.5h83q6 0 6 6
q0 22 16 37.5t40 15.5t40 -15.5t16 -37.5q0 -6 6 -6h8q20 0 32 -11.5t12 -30.5t-12 -30.5t-32 -11.5zM260 393q-68 0 -89 -64q-10 -30 -10 -88t10 -88q21 -64 89 -64q69 0 90 64q10 30 10 88t-10 88q-21 64 -90 64z" />
    <glyph glyph-name="Emacron" unicode="&#x112;" horiz-adv-x="570" 
d="M75 53v574q0 24 14 38.5t39 14.5h339q27 0 43.5 -14.5t16.5 -38.5t-16.5 -38.5t-43.5 -14.5h-268q-6 0 -6 -6v-166q0 -6 6 -6h218q27 0 43.5 -14.5t16.5 -38.5t-16.5 -38.5t-43.5 -14.5h-218q-6 0 -6 -6v-172q0 -6 6 -6h268q27 0 43.5 -14.5t16.5 -38.5t-16.5 -38.5
t-43.5 -14.5h-339q-25 0 -39 14.5t-14 38.5zM187 863h215q21 0 32.5 -11t11.5 -29t-11.5 -29.5t-32.5 -11.5h-215q-21 0 -32.5 11.5t-11.5 29.5t11.5 29t32.5 11z" />
    <glyph glyph-name="emacron" unicode="&#x113;" horiz-adv-x="521" 
d="M266 -11q-77 0 -129.5 35t-72.5 99q-17 53 -17 118q0 69 16 119q20 63 72.5 98t124.5 35q74 0 126 -35.5t72 -97.5q16 -51 16 -116q0 -18 -10.5 -28.5t-28.5 -10.5h-269q-6 0 -6 -6q0 -18 7 -37q25 -73 109 -73q50 0 99 33q23 16 41 16q21 0 34 -13t13 -34q0 -26 -23 -44
q-71 -58 -174 -58zM361 295q0 23 -6 41q-10 29 -35 45.5t-59 16.5q-74 0 -95 -62q-6 -18 -6 -41q0 -6 6 -6h189q6 0 6 6zM152 668h215q21 0 32.5 -11t11.5 -29t-11.5 -29.5t-32.5 -11.5h-215q-21 0 -32.5 11.5t-11.5 29.5t11.5 29t32.5 11z" />
    <glyph glyph-name="Ebreve" unicode="&#x114;" horiz-adv-x="570" 
d="M75 53v574q0 24 14 38.5t39 14.5h339q27 0 43.5 -14.5t16.5 -38.5t-16.5 -38.5t-43.5 -14.5h-268q-6 0 -6 -6v-166q0 -6 6 -6h218q27 0 43.5 -14.5t16.5 -38.5t-16.5 -38.5t-43.5 -14.5h-218q-6 0 -6 -6v-172q0 -6 6 -6h268q27 0 43.5 -14.5t16.5 -38.5t-16.5 -38.5
t-43.5 -14.5h-339q-25 0 -39 14.5t-14 38.5zM297 751q-60 0 -100 33t-40 77q0 14 8.5 23t23.5 9q21 0 34 -26q20 -41 74 -41q55 0 73 41q13 26 35 26q14 0 23 -9t9 -23q0 -44 -40 -77t-100 -33z" />
    <glyph glyph-name="ebreve" unicode="&#x115;" horiz-adv-x="521" 
d="M266 -11q-77 0 -129.5 35t-72.5 99q-17 53 -17 118q0 69 16 119q20 63 72.5 98t124.5 35q74 0 126 -35.5t72 -97.5q16 -51 16 -116q0 -18 -10.5 -28.5t-28.5 -10.5h-269q-6 0 -6 -6q0 -18 7 -37q25 -73 109 -73q50 0 99 33q23 16 41 16q21 0 34 -13t13 -34q0 -26 -23 -44
q-71 -58 -174 -58zM361 295q0 23 -6 41q-10 29 -35 45.5t-59 16.5q-74 0 -95 -62q-6 -18 -6 -41q0 -6 6 -6h189q6 0 6 6zM260 554q-60 0 -100 33t-40 77q0 14 8.5 23t23.5 9q21 0 34 -26q20 -41 74 -41q55 0 73 41q13 26 35 26q14 0 23 -9t9 -23q0 -44 -40 -77t-100 -33z
" />
    <glyph glyph-name="Edotaccent" unicode="&#x116;" horiz-adv-x="570" 
d="M75 53v574q0 24 14 38.5t39 14.5h339q27 0 43.5 -14.5t16.5 -38.5t-16.5 -38.5t-43.5 -14.5h-268q-6 0 -6 -6v-166q0 -6 6 -6h218q27 0 43.5 -14.5t16.5 -38.5t-16.5 -38.5t-43.5 -14.5h-218q-6 0 -6 -6v-172q0 -6 6 -6h268q27 0 43.5 -14.5t16.5 -38.5t-16.5 -38.5
t-43.5 -14.5h-339q-25 0 -39 14.5t-14 38.5zM229 818q0 28 19.5 47.5t47.5 19.5t47.5 -19.5t19.5 -47.5t-19.5 -47.5t-47.5 -19.5t-47.5 19.5t-19.5 47.5z" />
    <glyph glyph-name="edotaccent" unicode="&#x117;" horiz-adv-x="521" 
d="M266 -11q-77 0 -129.5 35t-72.5 99q-17 53 -17 118q0 69 16 119q20 63 72.5 98t124.5 35q74 0 126 -35.5t72 -97.5q16 -51 16 -116q0 -18 -10.5 -28.5t-28.5 -10.5h-269q-6 0 -6 -6q0 -18 7 -37q25 -73 109 -73q50 0 99 33q23 16 41 16q21 0 34 -13t13 -34q0 -26 -23 -44
q-71 -58 -174 -58zM361 295q0 23 -6 41q-10 29 -35 45.5t-59 16.5q-74 0 -95 -62q-6 -18 -6 -41q0 -6 6 -6h189q6 0 6 6zM193 622q0 28 19.5 47.5t47.5 19.5t47.5 -19.5t19.5 -47.5t-19.5 -47.5t-47.5 -19.5t-47.5 19.5t-19.5 47.5z" />
    <glyph glyph-name="Eogonek" unicode="&#x118;" horiz-adv-x="570" 
d="M417 290h-218q-6 0 -6 -6v-172q0 -6 6 -6h268q27 0 43.5 -14.5t16.5 -38.5t-16.5 -38.5t-43.5 -14.5h-7q-61 -50 -61 -84q0 -21 20 -21q4 0 16 4t18 4q14 0 23.5 -11t9.5 -26q0 -22 -21 -35q-27 -16 -62 -16q-43 0 -68.5 23t-25.5 63q0 52 51 99h-232q-25 0 -39 14.5
t-14 38.5v574q0 24 14 38.5t39 14.5h339q27 0 43.5 -14.5t16.5 -38.5t-16.5 -38.5t-43.5 -14.5h-268q-6 0 -6 -6v-166q0 -6 6 -6h218q27 0 43.5 -14.5t16.5 -38.5t-16.5 -38.5t-43.5 -14.5z" />
    <glyph glyph-name="eogonek" unicode="&#x119;" horiz-adv-x="521" 
d="M337 -185q-43 0 -68.5 23t-25.5 63q0 46 43 89q-6 -1 -19 -1q-78 0 -130 35t-73 99q-17 51 -17 118q0 69 16 119q21 64 72.5 98.5t124.5 34.5q75 0 126.5 -35t72.5 -98q15 -48 15 -116q0 -18 -10.5 -28.5t-28.5 -10.5h-269q-6 0 -6 -6q0 -17 7 -37q24 -73 110 -73
q49 0 98 33q23 16 41 16q21 0 34 -13t13 -34q0 -24 -23 -44q-8 -7 -23 -17q-84 -78 -84 -114q0 -21 19 -21q5 0 17 4q10 4 18 4q14 0 23.5 -11t9.5 -26q0 -24 -21 -35q-26 -16 -62 -16zM166 289h189q6 0 6 6q0 23 -6 41q-10 29 -35.5 45.5t-59.5 16.5t-59 -16.5t-35 -45.5
q-6 -18 -6 -41q0 -6 6 -6z" />
    <glyph glyph-name="Ecaron" unicode="&#x11a;" horiz-adv-x="570" 
d="M75 53v574q0 24 14 38.5t39 14.5h339q27 0 43.5 -14.5t16.5 -38.5t-16.5 -38.5t-43.5 -14.5h-268q-6 0 -6 -6v-166q0 -6 6 -6h218q27 0 43.5 -14.5t16.5 -38.5t-16.5 -38.5t-43.5 -14.5h-218q-6 0 -6 -6v-172q0 -6 6 -6h268q27 0 43.5 -14.5t16.5 -38.5t-16.5 -38.5
t-43.5 -14.5h-339q-25 0 -39 14.5t-14 38.5zM298 734q-28 0 -55 32l-64 76q-12 15 -12 29t10 23.5t24 9.5q17 0 32 -15l64 -68h2l64 68q15 15 32 15q14 0 24 -9.5t10 -23.5t-12 -29l-64 -76q-27 -32 -55 -32z" />
    <glyph glyph-name="ecaron" unicode="&#x11b;" horiz-adv-x="521" 
d="M266 -11q-77 0 -129.5 35t-72.5 99q-17 53 -17 118q0 69 16 119q20 63 72.5 98t124.5 35q74 0 126 -35.5t72 -97.5q16 -51 16 -116q0 -18 -10.5 -28.5t-28.5 -10.5h-269q-6 0 -6 -6q0 -18 7 -37q25 -73 109 -73q50 0 99 33q23 16 41 16q21 0 34 -13t13 -34q0 -26 -23 -44
q-71 -58 -174 -58zM361 295q0 23 -6 41q-10 29 -35 45.5t-59 16.5q-74 0 -95 -62q-6 -18 -6 -41q0 -6 6 -6h189q6 0 6 6zM260 538q-28 0 -55 32l-64 76q-12 15 -12 29t10 23.5t24 9.5q17 0 32 -15l64 -68h2l64 68q15 15 32 15q14 0 24 -9.5t10 -23.5t-12 -29l-64 -76
q-27 -32 -55 -32z" />
    <glyph glyph-name="Gcircumflex" unicode="&#x11c;" horiz-adv-x="627" 
d="M74 152q-19 62 -19 188t19 188q26 80 88.5 121.5t152.5 41.5q77 0 134 -29.5t83 -79.5q10 -18 10 -35q0 -23 -15.5 -38t-38.5 -15q-30 0 -52 30q-41 61 -121 61q-98 0 -127 -90q-13 -42 -13 -155t13 -155q29 -90 128 -90q47 0 81 22.5t47 63.5q11 33 11 87q0 6 -6 6h-78
q-24 0 -38 14t-14 36t14 36t38 14h153q22 0 35 -13t13 -35v-19q0 -97 -18 -151q-26 -81 -88 -124t-151 -43q-90 0 -152.5 41.5t-88.5 121.5zM408 740q-17 0 -32 15l-64 68h-2l-64 -68q-15 -15 -32 -15q-14 0 -24 9.5t-10 23.5t12 29l64 76q27 32 55 32t55 -32l64 -76
q12 -15 12 -29t-10 -23.5t-24 -9.5z" />
    <glyph glyph-name="gcircumflex" unicode="&#x11d;" horiz-adv-x="536" 
d="M238 -191q-46 0 -90 16t-65 39q-15 16 -15 37q0 20 13.5 34.5t34.5 14.5t45 -16q38 -25 83 -25q107 0 107 116v44h-1q-36 -56 -128 -56q-122 0 -161 120q-16 49 -16 119q0 72 16 121q19 58 60.5 89t100.5 31q91 0 130 -61h1v11q9 44 54 44q25 0 40.5 -16t15.5 -43v-389
q0 -230 -225 -230zM351 253q0 45 -11 76q-21 64 -85 64t-85 -64q-11 -31 -11 -76q0 -46 11 -77q21 -64 85 -64t85 64q11 31 11 77zM352 543q-17 0 -32 15l-64 68h-2l-64 -68q-15 -15 -32 -15q-14 0 -24 9.5t-10 23.5t12 29l64 76q27 32 55 32t55 -32l64 -76q12 -15 12 -29
t-10 -23.5t-24 -9.5z" />
    <glyph glyph-name="Gbreve" unicode="&#x11e;" horiz-adv-x="627" 
d="M74 152q-19 62 -19 188t19 188q26 80 88.5 121.5t152.5 41.5q77 0 134 -29.5t83 -79.5q10 -18 10 -35q0 -23 -15.5 -38t-38.5 -15q-30 0 -52 30q-41 61 -121 61q-98 0 -127 -90q-13 -42 -13 -155t13 -155q29 -90 128 -90q47 0 81 22.5t47 63.5q11 33 11 87q0 6 -6 6h-78
q-24 0 -38 14t-14 36t14 36t38 14h153q22 0 35 -13t13 -35v-19q0 -97 -18 -151q-26 -81 -88 -124t-151 -43q-90 0 -152.5 41.5t-88.5 121.5zM314 751q-60 0 -100 33t-40 77q0 14 8.5 23t23.5 9q21 0 34 -26q20 -41 74 -41q55 0 73 41q13 26 35 26q14 0 23 -9t9 -23
q0 -44 -40 -77t-100 -33z" />
    <glyph glyph-name="gbreve" unicode="&#x11f;" horiz-adv-x="536" 
d="M238 -191q-46 0 -90 16t-65 39q-15 16 -15 37q0 20 13.5 34.5t34.5 14.5t45 -16q38 -25 83 -25q107 0 107 116v44h-1q-36 -56 -128 -56q-122 0 -161 120q-16 49 -16 119q0 72 16 121q19 58 60.5 89t100.5 31q91 0 130 -61h1v11q9 44 54 44q25 0 40.5 -16t15.5 -43v-389
q0 -230 -225 -230zM351 253q0 45 -11 76q-21 64 -85 64t-85 -64q-11 -31 -11 -76q0 -46 11 -77q21 -64 85 -64t85 64q11 31 11 77zM256 554q-60 0 -100 33t-40 77q0 14 8.5 23t23.5 9q21 0 34 -26q20 -41 74 -41q55 0 73 41q13 26 35 26q14 0 23 -9t9 -23q0 -44 -40 -77
t-100 -33z" />
    <glyph glyph-name="Gdotaccent" unicode="&#x120;" horiz-adv-x="627" 
d="M74 152q-19 62 -19 188t19 188q26 80 88.5 121.5t152.5 41.5q77 0 134 -29.5t83 -79.5q10 -18 10 -35q0 -23 -15.5 -38t-38.5 -15q-30 0 -52 30q-41 61 -121 61q-98 0 -127 -90q-13 -42 -13 -155t13 -155q29 -90 128 -90q47 0 81 22.5t47 63.5q11 33 11 87q0 6 -6 6h-78
q-24 0 -38 14t-14 36t14 36t38 14h153q22 0 35 -13t13 -35v-19q0 -97 -18 -151q-26 -81 -88 -124t-151 -43q-90 0 -152.5 41.5t-88.5 121.5zM246 818q0 28 19.5 47.5t47.5 19.5t47.5 -19.5t19.5 -47.5t-19.5 -47.5t-47.5 -19.5t-47.5 19.5t-19.5 47.5z" />
    <glyph glyph-name="gdotaccent" unicode="&#x121;" horiz-adv-x="536" 
d="M238 -191q-46 0 -90 16t-65 39q-15 16 -15 37q0 20 13.5 34.5t34.5 14.5t45 -16q38 -25 83 -25q107 0 107 116v44h-1q-36 -56 -128 -56q-122 0 -161 120q-16 49 -16 119q0 72 16 121q19 58 60.5 89t100.5 31q91 0 130 -61h1v11q9 44 54 44q25 0 40.5 -16t15.5 -43v-389
q0 -230 -225 -230zM351 253q0 45 -11 76q-21 64 -85 64t-85 -64q-11 -31 -11 -76q0 -46 11 -77q21 -64 85 -64t85 64q11 31 11 77zM189 622q0 28 19.5 47.5t47.5 19.5t47.5 -19.5t19.5 -47.5t-19.5 -47.5t-47.5 -19.5t-47.5 19.5t-19.5 47.5z" />
    <glyph glyph-name="Gcommaaccent" unicode="&#x122;" horiz-adv-x="627" 
d="M74 152q-19 62 -19 188t19 188q26 80 88.5 121.5t152.5 41.5q77 0 134 -29.5t83 -79.5q10 -18 10 -35q0 -23 -15.5 -38t-38.5 -15q-30 0 -52 30q-41 61 -121 61q-98 0 -127 -90q-13 -42 -13 -155t13 -155q29 -90 128 -90q47 0 81 22.5t47 63.5q11 33 11 87q0 6 -6 6h-78
q-24 0 -38 14t-14 36t14 36t38 14h153q22 0 35 -13t13 -35v-19q0 -97 -18 -151q-26 -81 -88 -124t-151 -43q-90 0 -152.5 41.5t-88.5 121.5zM336 -184q-12 -39 -46 -39q-21 0 -35 12.5t-14 33.5q0 12 4 23l22 67q12 39 45 39q22 0 36 -12t14 -33q0 -9 -4 -23z" />
    <glyph glyph-name="gcommaaccent" unicode="&#x123;" horiz-adv-x="536" 
d="M238 -191q-46 0 -90 16t-65 39q-15 16 -15 37q0 20 13.5 34.5t34.5 14.5t45 -16q38 -25 83 -25q107 0 107 116v44h-1q-36 -56 -128 -56q-122 0 -161 120q-16 49 -16 119q0 72 16 121q19 58 60.5 89t100.5 31q91 0 130 -61h1v11q9 44 54 44q25 0 40.5 -16t15.5 -43v-389
q0 -230 -225 -230zM351 253q0 45 -11 76q-21 64 -85 64t-85 -64q-11 -31 -11 -76q0 -46 11 -77q21 -64 85 -64t85 64q11 31 11 77zM211 621l25 75q13 39 46 39q20 0 34 -13t14 -33q0 -8 -4 -22l-24 -75q-13 -39 -46 -39q-20 0 -34.5 13t-14.5 33q0 8 4 22z" />
    <glyph glyph-name="Hcircumflex" unicode="&#x124;" horiz-adv-x="657" 
d="M75 57v566q0 28 16.5 45t42.5 17t42.5 -17t16.5 -45v-221q0 -6 6 -6h259q6 0 6 6v221q0 28 16.5 45t42.5 17t42.5 -17t16.5 -45v-566q0 -28 -16.5 -45t-42.5 -17t-42.5 17t-16.5 45v227q0 6 -6 6h-259q-6 0 -6 -6v-227q0 -28 -16.5 -45t-42.5 -17t-42.5 17t-16.5 45z
M425 740q-17 0 -32 15l-64 68h-2l-64 -68q-15 -15 -32 -15q-14 0 -24 9.5t-10 23.5t12 29l64 76q27 32 55 32t55 -32l64 -76q12 -15 12 -29t-10 -23.5t-24 -9.5z" />
    <glyph glyph-name="hcircumflex" unicode="&#x125;" horiz-adv-x="548" 
d="M424 -5q-25 0 -40.5 16t-15.5 43v234q0 48 -23.5 76.5t-67.5 28.5q-43 0 -67.5 -29t-24.5 -76v-234q0 -27 -15.5 -43t-40.5 -16t-40.5 16t-15.5 43v572q0 27 15.5 43t40.5 16t40.5 -16t15.5 -43v-189h1q40 56 127 56q76 0 121.5 -50t45.5 -129v-260q0 -27 -15.5 -43
t-40.5 -16zM375 740q-17 0 -32 15l-64 68h-2l-64 -68q-15 -15 -32 -15q-14 0 -24 9.5t-10 23.5t12 29l64 76q27 32 55 32t55 -32l64 -76q12 -15 12 -29t-10 -23.5t-24 -9.5z" />
    <glyph glyph-name="Hbar" unicode="&#x126;" horiz-adv-x="657" 
d="M596 494h-8q-6 0 -6 -6v-431q0 -29 -16.5 -45.5t-42.5 -16.5t-42.5 16.5t-16.5 45.5v227q0 6 -6 6h-259q-6 0 -6 -6v-227q0 -29 -16.5 -45.5t-42.5 -16.5t-42.5 16.5t-16.5 45.5v431q0 6 -6 6h-8q-21 0 -33 11.5t-12 30.5t12 30.5t33 11.5h8q6 0 6 6v39q0 29 16.5 45.5
t42.5 16.5t42.5 -16.5t16.5 -45.5v-39q0 -6 6 -6h259q6 0 6 6v39q0 29 16.5 45.5t42.5 16.5t42.5 -16.5t16.5 -45.5v-39q0 -6 6 -6h8q21 0 33 -11.5t12 -30.5t-12 -30.5t-33 -11.5zM458 396q6 0 6 6v86q0 6 -6 6h-259q-6 0 -6 -6v-86q0 -6 6 -6h259z" />
    <glyph glyph-name="hbar" unicode="&#x127;" horiz-adv-x="548" 
d="M185 536v-99h1q40 56 127 56q76 0 121.5 -50t45.5 -129v-260q0 -27 -15.5 -43t-40.5 -16t-40.5 16t-15.5 43v234q0 48 -23.5 76.5t-67.5 28.5q-43 0 -67.5 -29t-24.5 -76v-234q0 -27 -15.5 -43t-40.5 -16t-40.5 16t-15.5 43v482q0 6 -6 6h-8q-20 0 -32 11.5t-12 30.5
t12 30.5t32 11.5h8q6 0 6 6q0 22 16 37.5t40 15.5t40 -15.5t16 -37.5q0 -6 6 -6h83q20 0 32 -11.5t12 -30.5t-12 -30.5t-32 -11.5h-83q-6 0 -6 -6z" />
    <glyph glyph-name="Itilde" unicode="&#x128;" horiz-adv-x="268" 
d="M75 57v566q0 28 16.5 45t42.5 17t42.5 -17t16.5 -45v-566q0 -28 -16.5 -45t-42.5 -17t-42.5 17t-16.5 45zM191 758q-29 0 -66 22q-28 18 -43 18q-16 0 -34 -19q-15 -15 -32 -15q-16 0 -26 9.5t-10 25.5q0 15 11 31q37 50 86 50q29 0 66 -22q28 -18 43 -18q16 0 34 19
q15 15 32 15q16 0 26 -9.5t10 -25.5q0 -15 -11 -31q-37 -50 -86 -50z" />
    <glyph glyph-name="itilde" unicode="&#x129;" horiz-adv-x="258" 
d="M129 -5q-25 0 -40.5 16t-15.5 43v374q0 27 15.5 43t40.5 16t40.5 -16t15.5 -43v-374q0 -27 -15.5 -43t-40.5 -16zM186 566q-29 0 -66 22q-28 18 -43 18q-16 0 -34 -19q-15 -15 -32 -15q-16 0 -26 9.5t-10 25.5q0 15 11 31q37 50 86 50q29 0 66 -22q28 -18 43 -18
q16 0 34 19q15 15 32 15q16 0 26 -9.5t10 -25.5q0 -15 -11 -31q-37 -50 -86 -50z" />
    <glyph glyph-name="Imacron" unicode="&#x12a;" horiz-adv-x="268" 
d="M75 57v566q0 28 16.5 45t42.5 17t42.5 -17t16.5 -45v-566q0 -28 -16.5 -45t-42.5 -17t-42.5 17t-16.5 45zM27 863h215q21 0 32.5 -11t11.5 -29t-11.5 -29.5t-32.5 -11.5h-215q-21 0 -32.5 11.5t-11.5 29.5t11.5 29t32.5 11z" />
    <glyph glyph-name="imacron" unicode="&#x12b;" horiz-adv-x="258" 
d="M129 -5q-25 0 -40.5 16t-15.5 43v374q0 27 15.5 43t40.5 16t40.5 -16t15.5 -43v-374q0 -27 -15.5 -43t-40.5 -16zM22 668h215q21 0 32.5 -11t11.5 -29t-11.5 -29.5t-32.5 -11.5h-215q-21 0 -32.5 11.5t-11.5 29.5t11.5 29t32.5 11z" />
    <glyph glyph-name="Ibreve" unicode="&#x12c;" horiz-adv-x="268" 
d="M75 57v566q0 28 16.5 45t42.5 17t42.5 -17t16.5 -45v-566q0 -28 -16.5 -45t-42.5 -17t-42.5 17t-16.5 45zM134 751q-60 0 -100 33t-40 77q0 14 8.5 23t23.5 9q21 0 34 -26q20 -41 74 -41q55 0 73 41q13 26 35 26q14 0 23 -9t9 -23q0 -44 -40 -77t-100 -33z" />
    <glyph glyph-name="ibreve" unicode="&#x12d;" horiz-adv-x="258" 
d="M129 -5q-25 0 -40.5 16t-15.5 43v374q0 27 15.5 43t40.5 16t40.5 -16t15.5 -43v-374q0 -27 -15.5 -43t-40.5 -16zM129 554q-60 0 -100 33t-40 77q0 14 8.5 23t23.5 9q21 0 34 -26q20 -41 74 -41q55 0 73 41q13 26 35 26q14 0 23 -9t9 -23q0 -44 -40 -77t-100 -33z" />
    <glyph glyph-name="Iogonek" unicode="&#x12e;" horiz-adv-x="268" 
d="M121 -185q-43 0 -68.5 23t-25.5 63q0 59 61 114q-13 15 -13 42v566q0 28 16.5 45t42.5 17t42.5 -17t16.5 -45v-566q0 -33 -25 -61q-30 -32 -40.5 -48.5t-10.5 -31.5q0 -21 19 -21q5 0 17 4q10 4 18 4q14 0 23.5 -11t9.5 -26q0 -24 -21 -35q-26 -16 -62 -16z" />
    <glyph glyph-name="iogonek" unicode="&#x12f;" horiz-adv-x="258" 
d="M62 622q0 28 19.5 47.5t47.5 19.5t47.5 -19.5t19.5 -47.5t-19.5 -47.5t-47.5 -19.5t-47.5 19.5t-19.5 47.5zM73 54v374q0 27 15.5 43t40.5 16t40.5 -16t15.5 -43v-374q0 -31 -18 -49q-57 -57 -57 -89q0 -21 20 -21q5 0 17 4q10 4 18 4q14 0 23.5 -11t9.5 -26
q0 -24 -21 -35q-26 -16 -62 -16q-43 0 -68.5 23t-25.5 63q0 57 59 119q-7 12 -7 34z" />
    <glyph glyph-name="Idotaccent" unicode="&#x130;" horiz-adv-x="268" 
d="M75 57v566q0 28 16.5 45t42.5 17t42.5 -17t16.5 -45v-566q0 -28 -16.5 -45t-42.5 -17t-42.5 17t-16.5 45zM66 818q0 28 19.5 47.5t47.5 19.5t47.5 -19.5t19.5 -47.5t-19.5 -47.5t-47.5 -19.5t-47.5 19.5t-19.5 47.5z" />
    <glyph glyph-name="dotlessi" unicode="&#x131;" horiz-adv-x="258" 
d="M129 -5q-25 0 -40.5 16t-15.5 43v374q0 27 15.5 43t40.5 16t40.5 -16t15.5 -43v-374q0 -27 -15.5 -43t-40.5 -16z" />
    <glyph glyph-name="Jcircumflex" unicode="&#x134;" horiz-adv-x="505" 
d="M54 42q-17 17 -17 43q0 21 15 35.5t37 14.5q20 0 44 -17q33 -23 75 -23q108 0 108 129v399q0 28 16.5 45t42.5 17t42.5 -17t16.5 -45v-392q0 -115 -62 -178.5t-168 -63.5q-44 0 -86 15.5t-64 37.5zM471 740q-17 0 -32 15l-64 68h-2l-64 -68q-15 -15 -32 -15
q-14 0 -24 9.5t-10 23.5t12 29l64 76q27 32 55 32t55 -32l64 -76q12 -15 12 -29t-10 -23.5t-24 -9.5z" />
    <glyph glyph-name="jcircumflex" unicode="&#x135;" horiz-adv-x="258" 
d="M32 -180q-25 0 -38.5 13t-13.5 35q0 44 46 51q27 5 37 17t10 43v449q0 27 15.5 43t40.5 16t40.5 -16t15.5 -43v-448q0 -84 -37 -122t-116 -38zM225 543q-17 0 -32 15l-64 68h-2l-64 -68q-15 -15 -32 -15q-14 0 -24 9.5t-10 23.5t12 29l64 76q27 32 55 32t55 -32l64 -76
q12 -15 12 -29t-10 -23.5t-24 -9.5z" />
    <glyph glyph-name="Kcommaaccent" unicode="&#x136;" horiz-adv-x="606" 
d="M75 57v566q0 28 16.5 45t42.5 17t42.5 -17t16.5 -45v-276l257 313q20 25 48 25q22 0 37.5 -14.5t15.5 -36.5t-14 -39l-159 -186l190 -321q11 -19 11 -37q0 -24 -16 -40t-41 -16q-35 0 -56 35l-166 288l-107 -131v-130q0 -28 -16.5 -45t-42.5 -17t-42.5 17t-16.5 45z
M336 -184q-12 -39 -46 -39q-21 0 -35 12.5t-14 33.5q0 12 4 23l22 67q12 39 45 39q22 0 36 -12t14 -33q0 -9 -4 -23z" />
    <glyph glyph-name="kcommaaccent" unicode="&#x137;" horiz-adv-x="520" 
d="M185 626v-346l174 187q20 20 42 20q19 0 33.5 -13t14.5 -33q0 -19 -18 -39l-101 -102l139 -221q10 -17 10 -30q0 -23 -15.5 -38.5t-38.5 -15.5q-34 0 -52 30l-120 200l-68 -73v-98q0 -27 -15.5 -43t-40.5 -16t-40.5 16t-15.5 43v572q0 27 15.5 43t40.5 16t40.5 -16
t15.5 -43zM288 -184q-12 -39 -46 -39q-21 0 -35 12.5t-14 33.5q0 12 4 23l22 67q12 39 45 39q22 0 36 -12t14 -33q0 -9 -4 -23z" />
    <glyph glyph-name="kgreenlandic" unicode="&#x138;" horiz-adv-x="520" 
d="M129 -5q-25 0 -40.5 16t-15.5 43v374q0 27 15.5 43t40.5 16t40.5 -16t15.5 -43v-148l174 187q20 20 42 20q19 0 33.5 -13t14.5 -33q0 -19 -18 -39l-101 -102l139 -221q10 -17 10 -30q0 -23 -15.5 -38.5t-38.5 -15.5q-34 0 -52 30l-120 200l-68 -73v-98q0 -27 -15.5 -43
t-40.5 -16z" />
    <glyph glyph-name="Lacute" unicode="&#x139;" horiz-adv-x="545" 
d="M75 59v564q0 28 16.5 45t42.5 17t42.5 -17t16.5 -45v-511q0 -6 6 -6h268q27 0 43.5 -14.5t16.5 -38.5t-16.5 -38.5t-43.5 -14.5h-333q-27 0 -43 16t-16 43zM136 822l58 66q15 17 35 17q19 0 32 -12t13 -31q0 -20 -14 -35l-59 -63q-18 -19 -38 -19q-17 0 -29 12t-12 29
q0 19 14 36z" />
    <glyph glyph-name="lacute" unicode="&#x13a;" horiz-adv-x="291" 
d="M211 -6h-8q-71 0 -101.5 34.5t-30.5 106.5v491q0 27 15.5 43t40.5 16t40.5 -16t15.5 -43v-482q0 -25 9 -36t30 -14q47 -6 47 -49q0 -23 -14.5 -37t-43.5 -14zM117 822l58 66q15 17 35 17q19 0 32 -12t13 -31q0 -20 -14 -35l-59 -63q-18 -19 -38 -19q-17 0 -29 12t-12 29
q0 19 14 36z" />
    <glyph glyph-name="Lcommaaccent" unicode="&#x13b;" horiz-adv-x="545" 
d="M75 59v564q0 28 16.5 45t42.5 17t42.5 -17t16.5 -45v-511q0 -6 6 -6h268q27 0 43.5 -14.5t16.5 -38.5t-16.5 -38.5t-43.5 -14.5h-333q-27 0 -43 16t-16 43zM322 -184q-12 -39 -46 -39q-21 0 -35 12.5t-14 33.5q0 12 4 23l22 67q12 39 45 39q22 0 36 -12t14 -33
q0 -9 -4 -23z" />
    <glyph glyph-name="lcommaaccent" unicode="&#x13c;" horiz-adv-x="291" 
d="M211 -6h-8q-71 0 -101.5 34.5t-30.5 106.5v491q0 27 15.5 43t40.5 16t40.5 -16t15.5 -43v-482q0 -25 9 -36t30 -14q47 -6 47 -49q0 -23 -14.5 -37t-43.5 -14zM188 -184q-12 -39 -46 -39q-21 0 -35 12.5t-14 33.5q0 12 4 23l22 67q12 39 45 39q22 0 36 -12t14 -33
q0 -9 -4 -23z" />
    <glyph glyph-name="Lcaron" unicode="&#x13d;" horiz-adv-x="545" 
d="M75 59v564q0 28 16.5 45t42.5 17t42.5 -17t16.5 -45v-511q0 -6 6 -6h268q27 0 43.5 -14.5t16.5 -38.5t-16.5 -38.5t-43.5 -14.5h-333q-27 0 -43 16t-16 43zM347 550q-12 -39 -46 -39q-21 0 -34.5 12.5t-13.5 33.5q0 11 3 22l22 67q12 39 46 39q21 0 34.5 -12.5
t13.5 -33.5q0 -11 -3 -22z" />
    <glyph glyph-name="lcaron" unicode="&#x13e;" horiz-adv-x="291" 
d="M211 -6h-8q-71 0 -101.5 34.5t-30.5 106.5v491q0 27 15.5 43t40.5 16t40.5 -16t15.5 -43v-482q0 -25 9 -36t30 -14q47 -6 47 -49q0 -23 -14.5 -37t-43.5 -14zM306 550q-12 -39 -46 -39q-21 0 -34.5 12.5t-13.5 33.5q0 11 3 22l22 67q12 39 46 39q21 0 34.5 -12.5
t13.5 -33.5q0 -11 -3 -22z" />
    <glyph glyph-name="Ldot" unicode="&#x13f;" horiz-adv-x="545" 
d="M75 59v564q0 28 16.5 45t42.5 17t42.5 -17t16.5 -45v-511q0 -6 6 -6h268q27 0 43.5 -14.5t16.5 -38.5t-16.5 -38.5t-43.5 -14.5h-333q-27 0 -43 16t-16 43zM335 332q0 29 21 50t50 21t50 -21t21 -50t-21 -50t-50 -21t-50 21t-21 50z" />
    <glyph glyph-name="ldot" unicode="&#x140;" horiz-adv-x="352" 
d="M211 -6h-8q-71 0 -101.5 34.5t-30.5 106.5v491q0 27 15.5 43t40.5 16t40.5 -16t15.5 -43v-482q0 -25 9 -36t30 -14q47 -6 47 -49q0 -23 -14.5 -37t-43.5 -14zM233 337q0 29 21 50t50 21t50 -21t21 -50t-21 -50t-50 -21t-50 21t-21 50z" />
    <glyph glyph-name="Lslash" unicode="&#x141;" horiz-adv-x="545" 
d="M318 384l-125 -64v-208q0 -6 6 -6h268q27 0 43.5 -14.5t16.5 -38.5t-16.5 -38.5t-43.5 -14.5h-333q-27 0 -43 16t-16 43v200l-3 -1q-17 -9 -30 -9q-17 0 -30 12.5t-13 31.5q0 28 30 44l46 23v263q0 28 16.5 45t42.5 17t42.5 -17t16.5 -45v-202l82 42q17 9 30 9
q17 0 30 -12.5t13 -31.5q0 -28 -30 -44z" />
    <glyph glyph-name="lslash" unicode="&#x142;" horiz-adv-x="291" 
d="M238 365l-55 -28v-193q0 -25 9 -36t30 -14q47 -6 47 -49q0 -23 -14.5 -37t-43.5 -14h-8q-71 0 -101.5 34.5t-30.5 106.5v145q-9 -4 -20 -4q-17 0 -28.5 11.5t-11.5 28.5q0 28 28 42l32 16v252q0 27 15.5 43t40.5 16t40.5 -16t15.5 -43v-195l17 9q13 7 26 7
q17 0 28.5 -11.5t11.5 -28.5q0 -28 -28 -42z" />
    <glyph glyph-name="Nacute" unicode="&#x143;" horiz-adv-x="657" 
d="M75 53v561q0 33 18 52t49 19q44 0 78 -58l250 -424h3v424q0 27 15 42.5t40 15.5q24 0 39 -15.5t15 -42.5v-561q0 -33 -18 -52t-48 -19q-45 0 -79 58l-249 424h-4v-424q0 -27 -15 -42.5t-39 -15.5q-25 0 -40 15.5t-15 42.5zM296 822l58 66q15 17 35 17q19 0 32 -12t13 -31
q0 -20 -14 -35l-59 -63q-18 -19 -38 -19q-17 0 -29 12t-12 29q0 19 14 36z" />
    <glyph glyph-name="nacute" unicode="&#x144;" horiz-adv-x="548" 
d="M185 437h1q40 56 127 56q76 0 121.5 -50t45.5 -129v-260q0 -27 -15.5 -43t-40.5 -16t-40.5 16t-15.5 43v234q0 48 -23.5 76.5t-67.5 28.5q-43 0 -67.5 -29t-24.5 -76v-234q0 -27 -15.5 -43t-40.5 -16t-40.5 16t-15.5 43v374q0 27 15.5 43t40.5 16q47 0 56 -50zM300 565
q-14 -20 -37 -20q-19 0 -31 11t-12 29q0 17 11 32l49 74q13 20 38 20q18 0 31 -11.5t13 -29.5q0 -16 -11 -32z" />
    <glyph glyph-name="Ncommaaccent" unicode="&#x145;" horiz-adv-x="657" 
d="M75 53v561q0 33 18 52t49 19q44 0 78 -58l250 -424h3v424q0 27 15 42.5t40 15.5q24 0 39 -15.5t15 -42.5v-561q0 -33 -18 -52t-48 -19q-45 0 -79 58l-249 424h-4v-424q0 -27 -15 -42.5t-39 -15.5q-25 0 -40 15.5t-15 42.5zM358 -184q-12 -39 -46 -39q-21 0 -35 12.5
t-14 33.5q0 12 4 23l22 67q12 39 45 39q22 0 36 -12t14 -33q0 -9 -4 -23z" />
    <glyph glyph-name="ncommaaccent" unicode="&#x146;" horiz-adv-x="548" 
d="M185 437h1q40 56 127 56q76 0 121.5 -50t45.5 -129v-260q0 -27 -15.5 -43t-40.5 -16t-40.5 16t-15.5 43v234q0 48 -23.5 76.5t-67.5 28.5q-43 0 -67.5 -29t-24.5 -76v-234q0 -27 -15.5 -43t-40.5 -16t-40.5 16t-15.5 43v374q0 27 15.5 43t40.5 16q47 0 56 -50zM297 -184
q-12 -39 -46 -39q-21 0 -35 12.5t-14 33.5q0 12 4 23l22 67q12 39 45 39q22 0 36 -12t14 -33q0 -9 -4 -23z" />
    <glyph glyph-name="Ncaron" unicode="&#x147;" horiz-adv-x="657" 
d="M75 53v561q0 33 18 52t49 19q44 0 78 -58l250 -424h3v424q0 27 15 42.5t40 15.5q24 0 39 -15.5t15 -42.5v-561q0 -33 -18 -52t-48 -19q-45 0 -79 58l-249 424h-4v-424q0 -27 -15 -42.5t-39 -15.5q-25 0 -40 15.5t-15 42.5zM325 734q-28 0 -55 32l-64 76q-12 15 -12 29
t10 23.5t24 9.5q17 0 32 -15l64 -68h2l64 68q15 15 32 15q14 0 24 -9.5t10 -23.5t-12 -29l-64 -76q-27 -32 -55 -32z" />
    <glyph glyph-name="ncaron" unicode="&#x148;" horiz-adv-x="548" 
d="M185 437h1q40 56 127 56q76 0 121.5 -50t45.5 -129v-260q0 -27 -15.5 -43t-40.5 -16t-40.5 16t-15.5 43v234q0 48 -23.5 76.5t-67.5 28.5q-43 0 -67.5 -29t-24.5 -76v-234q0 -27 -15.5 -43t-40.5 -16t-40.5 16t-15.5 43v374q0 27 15.5 43t40.5 16q47 0 56 -50zM273 538
q-28 0 -55 32l-64 76q-12 15 -12 29t10 23.5t24 9.5q17 0 32 -15l64 -68h2l64 68q15 15 32 15q14 0 24 -9.5t10 -23.5t-12 -29l-64 -76q-27 -32 -55 -32z" />
    <glyph glyph-name="Eng" unicode="&#x14a;" horiz-adv-x="657" 
d="M471 -1l-283 478h-4v-424q0 -27 -15 -42.5t-39 -15.5q-25 0 -40 15.5t-15 42.5v561q0 33 18 52t49 19q44 0 78 -58l250 -424h3v424q0 27 15 42.5t40 15.5q24 0 39 -15.5t15 -42.5v-623q0 -97 -44 -140.5t-139 -43.5q-24 0 -39 15.5t-15 37.5t14.5 37t38.5 16q73 2 73 65
v8z" />
    <glyph glyph-name="eng" unicode="&#x14b;" horiz-adv-x="548" 
d="M326 -180q-24 0 -38 13.5t-14 35.5q0 43 46 51q28 3 38 16t10 45v307q0 48 -23.5 76.5t-67.5 28.5q-43 0 -67.5 -29t-24.5 -76v-234q0 -27 -15.5 -43t-40.5 -16t-40.5 16t-15.5 43v374q0 27 15.5 43t40.5 16q47 0 56 -50h1q40 56 127 56q76 0 121.5 -50t45.5 -129v-334
q0 -84 -37.5 -122t-116.5 -38z" />
    <glyph glyph-name="Omacron" unicode="&#x14c;" horiz-adv-x="627" 
d="M55 340q0 127 20 188q26 80 87.5 121.5t150.5 41.5t151 -41.5t88 -121.5q20 -61 20 -188t-20 -188q-26 -80 -88 -121.5t-151 -41.5t-150.5 41.5t-87.5 121.5q-20 61 -20 188zM452 340q0 115 -14 156q-29 89 -125 89q-95 0 -124 -89q-14 -41 -14 -156t14 -156
q29 -89 124 -89q96 0 125 89q14 41 14 156zM206 863h215q21 0 32.5 -11t11.5 -29t-11.5 -29.5t-32.5 -11.5h-215q-21 0 -32.5 11.5t-11.5 29.5t11.5 29t32.5 11z" />
    <glyph glyph-name="omacron" unicode="&#x14d;" horiz-adv-x="523" 
d="M262 -11q-74 0 -126.5 35t-72.5 98q-16 49 -16 119t16 119q20 63 72.5 98t126.5 35q73 0 125.5 -35t72.5 -98q16 -49 16 -119t-16 -119q-20 -63 -72.5 -98t-125.5 -35zM262 89q68 0 90 63q10 31 10 89q0 57 -10 89q-22 63 -90 63q-69 0 -91 -63q-10 -32 -10 -89
q0 -58 10 -89q22 -63 91 -63zM154 668h215q21 0 32.5 -11t11.5 -29t-11.5 -29.5t-32.5 -11.5h-215q-21 0 -32.5 11.5t-11.5 29.5t11.5 29t32.5 11z" />
    <glyph glyph-name="Obreve" unicode="&#x14e;" horiz-adv-x="627" 
d="M55 340q0 127 20 188q26 80 87.5 121.5t150.5 41.5t151 -41.5t88 -121.5q20 -61 20 -188t-20 -188q-26 -80 -88 -121.5t-151 -41.5t-150.5 41.5t-87.5 121.5q-20 61 -20 188zM452 340q0 115 -14 156q-29 89 -125 89q-95 0 -124 -89q-14 -41 -14 -156t14 -156
q29 -89 124 -89q96 0 125 89q14 41 14 156zM313 751q-60 0 -100 33t-40 77q0 14 8.5 23t23.5 9q21 0 34 -26q20 -41 74 -41q55 0 73 41q13 26 35 26q14 0 23 -9t9 -23q0 -44 -40 -77t-100 -33z" />
    <glyph glyph-name="obreve" unicode="&#x14f;" horiz-adv-x="523" 
d="M262 -11q-74 0 -126.5 35t-72.5 98q-16 49 -16 119t16 119q20 63 72.5 98t126.5 35q73 0 125.5 -35t72.5 -98q16 -49 16 -119t-16 -119q-20 -63 -72.5 -98t-125.5 -35zM262 89q68 0 90 63q10 31 10 89q0 57 -10 89q-22 63 -90 63q-69 0 -91 -63q-10 -32 -10 -89
q0 -58 10 -89q22 -63 91 -63zM261 554q-60 0 -100 33t-40 77q0 14 8.5 23t23.5 9q21 0 34 -26q20 -41 74 -41q55 0 73 41q13 26 35 26q14 0 23 -9t9 -23q0 -44 -40 -77t-100 -33z" />
    <glyph glyph-name="Ohungarumlaut" unicode="&#x150;" horiz-adv-x="627" 
d="M55 340q0 127 20 188q26 80 87.5 121.5t150.5 41.5t151 -41.5t88 -121.5q20 -61 20 -188t-20 -188q-26 -80 -88 -121.5t-151 -41.5t-150.5 41.5t-87.5 121.5q-20 61 -20 188zM452 340q0 115 -14 156q-29 89 -125 89q-95 0 -124 -89q-14 -41 -14 -156t14 -156
q29 -89 124 -89q96 0 125 89q14 41 14 156zM434 773q-15 -22 -37 -22q-17 0 -30.5 11.5t-13.5 29.5q0 16 12 33l42 63q15 22 39 22q17 0 30 -12t13 -30q0 -17 -11 -32zM275 773q-15 -22 -37 -22q-17 0 -30.5 11.5t-13.5 29.5q0 16 12 33l42 63q15 22 39 22q17 0 30 -12
t13 -30q0 -17 -11 -32z" />
    <glyph glyph-name="ohungarumlaut" unicode="&#x151;" horiz-adv-x="523" 
d="M262 -11q-74 0 -126.5 35t-72.5 98q-16 49 -16 119t16 119q20 63 72.5 98t126.5 35q73 0 125.5 -35t72.5 -98q16 -49 16 -119t-16 -119q-20 -63 -72.5 -98t-125.5 -35zM262 89q68 0 90 63q10 31 10 89q0 57 -10 89q-22 63 -90 63q-69 0 -91 -63q-10 -32 -10 -89
q0 -58 10 -89q22 -63 91 -63zM393 568q-17 -26 -40 -26q-18 0 -30.5 12t-12.5 30q0 15 9 30l44 74q15 25 41 25q18 0 30.5 -11.5t12.5 -29.5q0 -16 -9 -29zM232 568q-17 -26 -40 -26q-18 0 -30.5 12t-12.5 30q0 15 9 30l44 74q15 25 41 25q18 0 30.5 -11.5t12.5 -29.5
q0 -16 -9 -29z" />
    <glyph glyph-name="OE" unicode="&#x152;" horiz-adv-x="947" 
d="M300 -11q-81 0 -140 42t-85 121q-20 61 -20 188t20 188q26 79 85 121t140 42q105 0 151 -64h1q0 24 14 38.5t39 14.5h339q27 0 43.5 -14.5t16.5 -38.5t-16.5 -38.5t-43.5 -14.5h-268q-6 0 -6 -6v-166q0 -6 6 -6h218q27 0 43.5 -14.5t16.5 -38.5t-16.5 -38.5t-43.5 -14.5
h-218q-6 0 -6 -6v-172q0 -6 6 -6h268q27 0 43.5 -14.5t16.5 -38.5t-16.5 -38.5t-43.5 -14.5h-339q-25 0 -39 14.5t-14 38.5h-1q-46 -64 -151 -64zM313 95q96 0 125 89q14 41 14 156t-14 156q-29 89 -125 89q-95 0 -124 -89q-14 -41 -14 -156t14 -156q29 -89 124 -89z" />
    <glyph glyph-name="oe" unicode="&#x153;" horiz-adv-x="834" 
d="M573 493q75 0 126.5 -35t72.5 -98q15 -48 15 -116q0 -18 -10.5 -28.5t-28.5 -10.5h-269q-6 0 -6 -6q0 -17 7 -37q24 -73 110 -73q49 0 98 33q23 16 41 16q21 0 34 -13t13 -34q0 -26 -23 -44q-71 -58 -171 -58q-107 0 -162 66h-2q-53 -66 -158 -66q-73 0 -124.5 35
t-72.5 99q-16 49 -16 118t16 118q21 64 72.5 99t124.5 35q99 0 157 -63h2q52 63 154 63zM479 289h189q6 0 6 6q0 23 -6 41q-10 29 -35.5 45.5t-59.5 16.5t-59 -16.5t-35 -45.5q-6 -18 -6 -41q0 -6 6 -6zM261 89q71 0 91 66q10 31 10 86t-10 86q-20 66 -91 66q-70 0 -90 -66
q-10 -31 -10 -86t10 -86q20 -66 90 -66z" />
    <glyph glyph-name="Racute" unicode="&#x154;" horiz-adv-x="619" 
d="M507 -5q-39 0 -58 37l-123 243h-127q-6 0 -6 -6v-212q0 -28 -16.5 -45t-42.5 -17t-42.5 17t-16.5 45v570q0 24 14 38.5t39 14.5h220q94 0 155.5 -57t61.5 -146q0 -63 -32.5 -111t-88.5 -72l111 -207q9 -17 9 -36q0 -24 -15.5 -40t-41.5 -16zM344 381q47 0 75.5 26.5
t28.5 69.5q0 44 -28.5 70.5t-75.5 26.5h-145q-6 0 -6 -6v-181q0 -6 6 -6h145zM258 822l58 66q15 17 35 17q19 0 32 -12t13 -31q0 -20 -14 -35l-59 -63q-18 -19 -38 -19q-17 0 -29 12t-12 29q0 19 14 36z" />
    <glyph glyph-name="racute" unicode="&#x155;" horiz-adv-x="420" 
d="M185 426v2q0 27 -15.5 43t-40.5 16t-40.5 -16t-15.5 -43v-374q0 -27 15.5 -43t40.5 -16t40.5 16t15.5 43v214q0 122 88 122q17 0 45 -8q15 -5 26 -5q25 0 40 16t15 41q0 30 -30 46q-28 13 -61 13q-41 0 -73 -19t-49 -48h-1zM257 565q-14 -20 -37 -20q-19 0 -31 11t-12 29
q0 17 11 32l49 74q13 20 38 20q18 0 31 -11.5t13 -29.5q0 -16 -11 -32z" />
    <glyph glyph-name="Rcommaaccent" unicode="&#x156;" horiz-adv-x="619" 
d="M507 -5q-39 0 -58 37l-123 243h-127q-6 0 -6 -6v-212q0 -28 -16.5 -45t-42.5 -17t-42.5 17t-16.5 45v570q0 24 14 38.5t39 14.5h220q94 0 155.5 -57t61.5 -146q0 -63 -32.5 -111t-88.5 -72l111 -207q9 -17 9 -36q0 -24 -15.5 -40t-41.5 -16zM344 381q47 0 75.5 26.5
t28.5 69.5q0 44 -28.5 70.5t-75.5 26.5h-145q-6 0 -6 -6v-181q0 -6 6 -6h145zM332 -184q-12 -39 -46 -39q-21 0 -35 12.5t-14 33.5q0 12 4 23l22 67q12 39 45 39q22 0 36 -12t14 -33q0 -9 -4 -23z" />
    <glyph glyph-name="rcommaaccent" unicode="&#x157;" horiz-adv-x="420" 
d="M185 428v-2h1q17 29 49 48t73 19q33 0 61 -13q30 -16 30 -46q0 -25 -15 -41t-40 -16q-11 0 -26 5q-28 8 -45 8q-88 0 -88 -122v-214q0 -27 -15.5 -43t-40.5 -16t-40.5 16t-15.5 43v374q0 27 15.5 43t40.5 16t40.5 -16t15.5 -43zM148 -184q-12 -39 -46 -39q-21 0 -35 12.5
t-14 33.5q0 12 4 23l22 67q12 39 45 39q22 0 36 -12t14 -33q0 -9 -4 -23z" />
    <glyph glyph-name="Rcaron" unicode="&#x158;" horiz-adv-x="619" 
d="M507 -5q-39 0 -58 37l-123 243h-127q-6 0 -6 -6v-212q0 -28 -16.5 -45t-42.5 -17t-42.5 17t-16.5 45v570q0 24 14 38.5t39 14.5h220q94 0 155.5 -57t61.5 -146q0 -63 -32.5 -111t-88.5 -72l111 -207q9 -17 9 -36q0 -24 -15.5 -40t-41.5 -16zM344 381q47 0 75.5 26.5
t28.5 69.5q0 44 -28.5 70.5t-75.5 26.5h-145q-6 0 -6 -6v-181q0 -6 6 -6h145zM289 734q-28 0 -55 32l-64 76q-12 15 -12 29t10 23.5t24 9.5q17 0 32 -15l64 -68h2l64 68q15 15 32 15q14 0 24 -9.5t10 -23.5t-12 -29l-64 -76q-27 -32 -55 -32z" />
    <glyph glyph-name="rcaron" unicode="&#x159;" horiz-adv-x="420" 
d="M185 426v2q0 27 -15.5 43t-40.5 16t-40.5 -16t-15.5 -43v-374q0 -27 15.5 -43t40.5 -16t40.5 16t15.5 43v214q0 122 88 122q17 0 45 -8q15 -5 26 -5q25 0 40 16t15 41q0 30 -30 46q-28 13 -61 13q-41 0 -73 -19t-49 -48h-1zM233 538q-28 0 -55 32l-64 76q-12 15 -12 29
t10 23.5t24 9.5q17 0 32 -15l64 -68h2l64 68q15 15 32 15q14 0 24 -9.5t10 -23.5t-12 -29l-64 -76q-27 -32 -55 -32z" />
    <glyph glyph-name="Sacute" unicode="&#x15a;" horiz-adv-x="587" 
d="M287 -11q-118 0 -212 61q-30 19 -30 51q0 22 15 38t38 16q19 0 38 -11q82 -49 157 -49q62 0 97 26.5t35 71.5q0 39 -27.5 62t-95.5 32l-35 5q-206 27 -206 195q0 92 62.5 148t166.5 56q114 0 185 -46q30 -17 30 -48q0 -23 -14.5 -37.5t-37.5 -14.5q-17 0 -37 9
q-64 31 -127 31q-52 0 -80 -25t-28 -66q0 -38 29 -60t95 -32l34 -5q206 -28 206 -199q0 -94 -67 -151.5t-191 -57.5zM265 822l58 66q15 17 35 17q19 0 32 -12t13 -31q0 -20 -14 -35l-59 -63q-18 -19 -38 -19q-17 0 -29 12t-12 29q0 19 14 36z" />
    <glyph glyph-name="sacute" unicode="&#x15b;" horiz-adv-x="498" 
d="M250 -11q-103 0 -176 49q-27 17 -27 45q0 21 14.5 36t36.5 15q16 0 35 -11q63 -39 123 -39q41 0 65 15t24 42q0 24 -17.5 36.5t-62.5 16.5l-52 5q-148 16 -148 142q0 70 49 111t138 41q79 0 146 -36q34 -19 34 -46q0 -21 -13 -35t-34 -14q-14 0 -35 11q-54 26 -104 26
q-36 0 -54.5 -14t-18.5 -36t17.5 -34.5t61.5 -16.5l52 -5q149 -15 149 -142q0 -74 -53.5 -118t-149.5 -44zM286 565q-14 -20 -37 -20q-19 0 -31 11t-12 29q0 17 11 32l49 74q13 20 38 20q18 0 31 -11.5t13 -29.5q0 -16 -11 -32z" />
    <glyph glyph-name="Scircumflex" unicode="&#x15c;" horiz-adv-x="587" 
d="M287 -11q-118 0 -212 61q-30 19 -30 51q0 22 15 38t38 16q19 0 38 -11q82 -49 157 -49q62 0 97 26.5t35 71.5q0 39 -27.5 62t-95.5 32l-35 5q-206 27 -206 195q0 92 62.5 148t166.5 56q114 0 185 -46q30 -17 30 -48q0 -23 -14.5 -37.5t-37.5 -14.5q-17 0 -37 9
q-64 31 -127 31q-52 0 -80 -25t-28 -66q0 -38 29 -60t95 -32l34 -5q206 -28 206 -199q0 -94 -67 -151.5t-191 -57.5zM391 740q-17 0 -32 15l-64 68h-2l-64 -68q-15 -15 -32 -15q-14 0 -24 9.5t-10 23.5t12 29l64 76q27 32 55 32t55 -32l64 -76q12 -15 12 -29t-10 -23.5
t-24 -9.5z" />
    <glyph glyph-name="scircumflex" unicode="&#x15d;" horiz-adv-x="498" 
d="M250 -11q-103 0 -176 49q-27 17 -27 45q0 21 14.5 36t36.5 15q16 0 35 -11q63 -39 123 -39q41 0 65 15t24 42q0 24 -17.5 36.5t-62.5 16.5l-52 5q-148 16 -148 142q0 70 49 111t138 41q79 0 146 -36q34 -19 34 -46q0 -21 -13 -35t-34 -14q-14 0 -35 11q-54 26 -104 26
q-36 0 -54.5 -14t-18.5 -36t17.5 -34.5t61.5 -16.5l52 -5q149 -15 149 -142q0 -74 -53.5 -118t-149.5 -44zM347 543q-17 0 -32 15l-64 68h-2l-64 -68q-15 -15 -32 -15q-14 0 -24 9.5t-10 23.5t12 29l64 76q27 32 55 32t55 -32l64 -76q12 -15 12 -29t-10 -23.5t-24 -9.5z" />
    <glyph glyph-name="Scedilla" unicode="&#x15e;" horiz-adv-x="587" 
d="M304 -137q-9 -33 -43 -33q-19 0 -32 11.5t-13 30.5q0 13 4 22l37 96q-105 10 -182 60q-30 19 -30 51q0 22 15 38t38 16q19 0 38 -11q82 -49 157 -49q62 0 97 26.5t35 71.5q0 39 -27.5 62t-95.5 32l-35 5q-206 27 -206 195q0 92 62.5 148t166.5 56q114 0 185 -46
q30 -17 30 -48q0 -23 -14.5 -37.5t-37.5 -14.5q-17 0 -37 9q-64 31 -127 31q-52 0 -80 -25t-28 -66q0 -38 29 -60t95 -32l34 -5q206 -28 206 -199q0 -81 -51 -136t-144 -68z" />
    <glyph glyph-name="scedilla" unicode="&#x15f;" horiz-adv-x="498" 
d="M259 -137q-9 -33 -43 -33q-19 0 -32 11.5t-13 30.5q0 13 4 22l37 97q-79 7 -138 47q-27 17 -27 45q0 21 14.5 36t36.5 15q16 0 35 -11q63 -39 123 -39q41 0 65 15t24 42q0 24 -17.5 36.5t-62.5 16.5l-52 5q-148 16 -148 142q0 70 49 111t138 41q79 0 146 -36
q34 -19 34 -46q0 -21 -13 -35t-34 -14q-14 0 -35 11q-54 26 -104 26q-36 0 -54.5 -14t-18.5 -36t17.5 -34.5t61.5 -16.5l52 -5q149 -15 149 -142q0 -62 -38 -103t-110 -54z" />
    <glyph glyph-name="Scaron" unicode="&#x160;" horiz-adv-x="587" 
d="M287 -11q-118 0 -212 61q-30 19 -30 51q0 22 15 38t38 16q19 0 38 -11q82 -49 157 -49q62 0 97 26.5t35 71.5q0 39 -27.5 62t-95.5 32l-35 5q-206 27 -206 195q0 92 62.5 148t166.5 56q114 0 185 -46q30 -17 30 -48q0 -23 -14.5 -37.5t-37.5 -14.5q-17 0 -37 9
q-64 31 -127 31q-52 0 -80 -25t-28 -66q0 -38 29 -60t95 -32l34 -5q206 -28 206 -199q0 -94 -67 -151.5t-191 -57.5zM294 734q-28 0 -55 32l-64 76q-12 15 -12 29t10 23.5t24 9.5q17 0 32 -15l64 -68h2l64 68q15 15 32 15q14 0 24 -9.5t10 -23.5t-12 -29l-64 -76
q-27 -32 -55 -32z" />
    <glyph glyph-name="scaron" unicode="&#x161;" horiz-adv-x="498" 
d="M250 -11q-103 0 -176 49q-27 17 -27 45q0 21 14.5 36t36.5 15q16 0 35 -11q63 -39 123 -39q41 0 65 15t24 42q0 24 -17.5 36.5t-62.5 16.5l-52 5q-148 16 -148 142q0 70 49 111t138 41q79 0 146 -36q34 -19 34 -46q0 -21 -13 -35t-34 -14q-14 0 -35 11q-54 26 -104 26
q-36 0 -54.5 -14t-18.5 -36t17.5 -34.5t61.5 -16.5l52 -5q149 -15 149 -142q0 -74 -53.5 -118t-149.5 -44zM251 538q-28 0 -55 32l-64 76q-12 15 -12 29t10 23.5t24 9.5q17 0 32 -15l64 -68h2l64 68q15 15 32 15q14 0 24 -9.5t10 -23.5t-12 -29l-64 -76q-27 -32 -55 -32z
" />
    <glyph glyph-name="Tcommaaccent" unicode="&#x162;" horiz-adv-x="550" 
d="M210 574h-135q-27 0 -43.5 14.5t-16.5 38.5t16.5 38.5t43.5 14.5h400q27 0 43.5 -14.5t16.5 -38.5t-16.5 -38.5t-43.5 -14.5h-135q-6 0 -6 -6v-511q0 -28 -16.5 -45t-42.5 -17t-42.5 17t-16.5 45v511q0 6 -6 6zM295 -184q-12 -39 -46 -39q-21 0 -35 12.5t-14 33.5
q0 12 4 23l22 67q12 39 45 39q22 0 36 -12t14 -33q0 -9 -4 -23z" />
    <glyph glyph-name="tcommaaccent" unicode="&#x163;" horiz-adv-x="322" 
d="M73 395h-14q-21 0 -33.5 11.5t-12.5 31.5t12.5 32t33.5 12h14q7 0 7 6v88q0 27 16 43t41 16q24 0 39.5 -16t15.5 -43v-88q0 -6 6 -6h51q21 0 33.5 -12t12.5 -32t-12.5 -31.5t-33.5 -11.5h-51q-6 0 -6 -6v-240q0 -29 10.5 -40.5t41.5 -14.5q25 -2 38 -16t13 -34
q0 -22 -15.5 -36t-45.5 -14h-9q-78 0 -111.5 36t-33.5 116v243q0 6 -7 6zM204 -184q-12 -39 -46 -39q-21 0 -35 12.5t-14 33.5q0 12 4 23l22 67q12 39 45 39q22 0 36 -12t14 -33q0 -9 -4 -23z" />
    <glyph glyph-name="Tcaron" unicode="&#x164;" horiz-adv-x="550" 
d="M210 574h-135q-27 0 -43.5 14.5t-16.5 38.5t16.5 38.5t43.5 14.5h400q27 0 43.5 -14.5t16.5 -38.5t-16.5 -38.5t-43.5 -14.5h-135q-6 0 -6 -6v-511q0 -28 -16.5 -45t-42.5 -17t-42.5 17t-16.5 45v511q0 6 -6 6zM275 734q-28 0 -55 32l-64 76q-12 15 -12 29t10 23.5
t24 9.5q17 0 32 -15l64 -68h2l64 68q15 15 32 15q14 0 24 -9.5t10 -23.5t-12 -29l-64 -76q-27 -32 -55 -32z" />
    <glyph glyph-name="tcaron" unicode="&#x165;" horiz-adv-x="322" 
d="M73 395h-14q-21 0 -33.5 11.5t-12.5 31.5t12.5 32t33.5 12h14q7 0 7 6v88q0 27 16 43t41 16q24 0 39.5 -16t15.5 -43v-88q0 -6 6 -6h51q21 0 33.5 -12t12.5 -32t-12.5 -31.5t-33.5 -11.5h-51q-6 0 -6 -6v-240q0 -29 10.5 -40.5t41.5 -14.5q25 -2 38 -16t13 -34
q0 -22 -15.5 -36t-45.5 -14h-9q-78 0 -111.5 36t-33.5 116v243q0 6 -7 6zM347 550q-12 -39 -46 -39q-21 0 -34.5 12.5t-13.5 33.5q0 11 3 22l22 67q12 39 46 39q21 0 34.5 -12.5t13.5 -33.5q0 -11 -3 -22z" />
    <glyph glyph-name="Tbar" unicode="&#x166;" horiz-adv-x="550" 
d="M274 -5q-25 0 -41.5 17t-16.5 45v273q0 6 -6 6h-65q-23 0 -37 14t-14 35t14 35t37 14h65q6 0 6 6v128q0 6 -6 6h-135q-28 0 -44 14.5t-16 38.5t16.5 38.5t43.5 14.5h401q27 0 43 -15t16 -38q0 -24 -16 -38.5t-43 -14.5h-136q-6 0 -6 -6v-128q0 -6 6 -6h65q23 0 37 -14
t14 -35t-14 -35t-37 -14h-65q-6 0 -6 -6v-273q0 -28 -16.5 -45t-43.5 -17z" />
    <glyph glyph-name="tbar" unicode="&#x167;" horiz-adv-x="322" 
d="M192 244v-95q0 -29 10.5 -40.5t41.5 -14.5q25 -2 38 -16t13 -34q0 -22 -15.5 -36t-45.5 -14h-9q-78 0 -111.5 36t-33.5 116v98q0 6 -6 6h-10q-19 0 -30.5 11t-11.5 30q0 18 11.5 29t30.5 11h10q6 0 6 6v52q0 6 -7 6h-14q-21 0 -33.5 11.5t-12.5 31.5t12.5 32t33.5 12h14
q7 0 7 6v88q0 27 16 43t41 16q24 0 39.5 -16t15.5 -43v-88q0 -6 6 -6h51q21 0 33.5 -12t12.5 -32t-12.5 -31.5t-33.5 -11.5h-51q-6 0 -6 -6v-52q0 -6 6 -6h34q19 0 30.5 -11t11.5 -29q0 -19 -11.5 -30t-30.5 -11h-34q-6 0 -6 -6z" />
    <glyph glyph-name="Utilde" unicode="&#x168;" horiz-adv-x="643" 
d="M321 -11q-110 0 -180 67t-70 183v384q0 28 16.5 45t42.5 17t42.5 -17t16.5 -45v-382q0 -69 36.5 -107.5t95.5 -38.5q60 0 96.5 38.5t36.5 107.5v382q0 28 16.5 45t42.5 17t42.5 -17t16.5 -45v-384q0 -116 -70 -183t-181 -67zM378 758q-29 0 -66 22q-28 18 -43 18
q-16 0 -34 -19q-15 -15 -32 -15q-16 0 -26 9.5t-10 25.5q0 15 11 31q38 50 86 50q29 0 66 -22q28 -18 43 -18q16 0 34 19q15 15 32 15q16 0 26 -9.5t10 -25.5q0 -15 -11 -31q-38 -50 -86 -50z" />
    <glyph glyph-name="utilde" unicode="&#x169;" horiz-adv-x="544" 
d="M415 -5q-47 0 -56 50h-1q-40 -56 -126 -56q-76 0 -120.5 50t-44.5 129v260q0 27 15.5 43t40.5 16t40.5 -16t15.5 -43v-234q0 -48 22.5 -76.5t66.5 -28.5q43 0 67 28.5t24 76.5v234q0 27 15.5 43t40.5 16t40.5 -16t15.5 -43v-374q0 -27 -15.5 -43t-40.5 -16zM328 566
q-29 0 -66 22q-28 18 -43 18q-16 0 -34 -19q-15 -15 -32 -15q-16 0 -26 9.5t-10 25.5q0 15 11 31q38 50 86 50q29 0 66 -22q28 -18 43 -18q16 0 34 19q15 15 32 15q16 0 26 -9.5t10 -25.5q0 -15 -11 -31q-38 -50 -86 -50z" />
    <glyph glyph-name="Umacron" unicode="&#x16a;" horiz-adv-x="643" 
d="M321 -11q-110 0 -180 67t-70 183v384q0 28 16.5 45t42.5 17t42.5 -17t16.5 -45v-382q0 -69 36.5 -107.5t95.5 -38.5q60 0 96.5 38.5t36.5 107.5v382q0 28 16.5 45t42.5 17t42.5 -17t16.5 -45v-384q0 -116 -70 -183t-181 -67zM214 863h215q21 0 32.5 -11t11.5 -29
t-11.5 -29.5t-32.5 -11.5h-215q-21 0 -32.5 11.5t-11.5 29.5t11.5 29t32.5 11z" />
    <glyph glyph-name="umacron" unicode="&#x16b;" horiz-adv-x="544" 
d="M415 -5q-47 0 -56 50h-1q-40 -56 -126 -56q-76 0 -120.5 50t-44.5 129v260q0 27 15.5 43t40.5 16t40.5 -16t15.5 -43v-234q0 -48 22.5 -76.5t66.5 -28.5q43 0 67 28.5t24 76.5v234q0 27 15.5 43t40.5 16t40.5 -16t15.5 -43v-374q0 -27 -15.5 -43t-40.5 -16zM163 668h215
q21 0 32.5 -11t11.5 -29t-11.5 -29.5t-32.5 -11.5h-215q-21 0 -32.5 11.5t-11.5 29.5t11.5 29t32.5 11z" />
    <glyph glyph-name="Ubreve" unicode="&#x16c;" horiz-adv-x="643" 
d="M321 -11q-110 0 -180 67t-70 183v384q0 28 16.5 45t42.5 17t42.5 -17t16.5 -45v-382q0 -69 36.5 -107.5t95.5 -38.5q60 0 96.5 38.5t36.5 107.5v382q0 28 16.5 45t42.5 17t42.5 -17t16.5 -45v-384q0 -116 -70 -183t-181 -67zM321 751q-60 0 -100 33t-40 77q0 14 8.5 23
t23.5 9q21 0 34 -26q20 -41 74 -41q55 0 73 41q13 26 35 26q14 0 23 -9t9 -23q0 -44 -40 -77t-100 -33z" />
    <glyph glyph-name="ubreve" unicode="&#x16d;" horiz-adv-x="544" 
d="M415 -5q-47 0 -56 50h-1q-40 -56 -126 -56q-76 0 -120.5 50t-44.5 129v260q0 27 15.5 43t40.5 16t40.5 -16t15.5 -43v-234q0 -48 22.5 -76.5t66.5 -28.5q43 0 67 28.5t24 76.5v234q0 27 15.5 43t40.5 16t40.5 -16t15.5 -43v-374q0 -27 -15.5 -43t-40.5 -16zM272 554
q-60 0 -100 33t-40 77q0 14 8.5 23t23.5 9q21 0 34 -26q20 -41 74 -41q55 0 73 41q13 26 35 26q14 0 23 -9t9 -23q0 -44 -40 -77t-100 -33z" />
    <glyph glyph-name="Uring" unicode="&#x16e;" horiz-adv-x="643" 
d="M321 -11q-110 0 -180 67t-70 183v384q0 28 16.5 45t42.5 17t42.5 -17t16.5 -45v-382q0 -69 36.5 -107.5t95.5 -38.5q60 0 96.5 38.5t36.5 107.5v382q0 28 16.5 45t42.5 17t42.5 -17t16.5 -45v-384q0 -116 -70 -183t-181 -67zM321 721q-44 0 -73 28.5t-29 71.5t29 71.5
t73 28.5t73 -28.5t29 -71.5t-29 -71.5t-73 -28.5zM321 770q22 0 35.5 14t13.5 37t-13.5 37t-35.5 14t-35.5 -14t-13.5 -37t13.5 -37t35.5 -14z" />
    <glyph glyph-name="uring" unicode="&#x16f;" horiz-adv-x="544" 
d="M415 -5q-47 0 -56 50h-1q-40 -56 -126 -56q-76 0 -120.5 50t-44.5 129v260q0 27 15.5 43t40.5 16t40.5 -16t15.5 -43v-234q0 -48 22.5 -76.5t66.5 -28.5q43 0 67 28.5t24 76.5v234q0 27 15.5 43t40.5 16t40.5 -16t15.5 -43v-374q0 -27 -15.5 -43t-40.5 -16zM271 529
q-44 0 -73 28.5t-29 71.5t29 71.5t73 28.5t73 -28.5t29 -71.5t-29 -71.5t-73 -28.5zM271 578q22 0 35.5 14t13.5 37t-13.5 37t-35.5 14t-35.5 -14t-13.5 -37t13.5 -37t35.5 -14z" />
    <glyph glyph-name="Uhungarumlaut" unicode="&#x170;" horiz-adv-x="643" 
d="M321 -11q-110 0 -180 67t-70 183v384q0 28 16.5 45t42.5 17t42.5 -17t16.5 -45v-382q0 -69 36.5 -107.5t95.5 -38.5q60 0 96.5 38.5t36.5 107.5v382q0 28 16.5 45t42.5 17t42.5 -17t16.5 -45v-384q0 -116 -70 -183t-181 -67zM443 773q-15 -22 -37 -22q-17 0 -30.5 11.5
t-13.5 29.5q0 16 12 33l42 63q15 22 39 22q17 0 30 -12t13 -30q0 -17 -11 -32zM284 773q-15 -22 -37 -22q-17 0 -30.5 11.5t-13.5 29.5q0 16 12 33l42 63q15 22 39 22q17 0 30 -12t13 -30q0 -17 -11 -32z" />
    <glyph glyph-name="uhungarumlaut" unicode="&#x171;" horiz-adv-x="544" 
d="M415 -5q-47 0 -56 50h-1q-40 -56 -126 -56q-76 0 -120.5 50t-44.5 129v260q0 27 15.5 43t40.5 16t40.5 -16t15.5 -43v-234q0 -48 22.5 -76.5t66.5 -28.5q43 0 67 28.5t24 76.5v234q0 27 15.5 43t40.5 16t40.5 -16t15.5 -43v-374q0 -27 -15.5 -43t-40.5 -16zM397 568
q-17 -26 -40 -26q-18 0 -30.5 12t-12.5 30q0 15 9 30l44 74q15 25 41 25q18 0 30.5 -11.5t12.5 -29.5q0 -16 -9 -29zM236 568q-17 -26 -40 -26q-18 0 -30.5 12t-12.5 30q0 15 9 30l44 74q15 25 41 25q18 0 30.5 -11.5t12.5 -29.5q0 -16 -9 -29z" />
    <glyph glyph-name="Uogonek" unicode="&#x172;" horiz-adv-x="643" 
d="M239 -99q0 39 38 91q-92 13 -149 79t-57 168v384q0 28 16.5 45t42.5 17t42.5 -17t16.5 -45v-382q0 -69 36.5 -107.5t95.5 -38.5q60 0 96.5 38.5t36.5 107.5v382q0 28 16.5 45t42.5 17t42.5 -17t16.5 -45v-384q0 -102 -56.5 -167t-147.5 -80q-39 -53 -39 -76q0 -21 20 -21
q4 0 16 4t19 4q14 0 23.5 -11t9.5 -26q0 -23 -21 -35q-26 -16 -63 -16q-43 0 -68.5 23t-25.5 63z" />
    <glyph glyph-name="uogonek" unicode="&#x173;" horiz-adv-x="544" 
d="M359 45h-1q-40 -56 -126 -56q-76 0 -120.5 50t-44.5 129v260q0 27 15.5 43t40.5 16t40.5 -16t15.5 -43v-234q0 -48 22.5 -76.5t66.5 -28.5q43 0 67 28.5t24 76.5v234q0 27 15.5 43t40.5 16t40.5 -16t15.5 -43v-374q0 -30 -20 -49q-71 -63 -71 -89q0 -21 20 -21q4 0 16 4
q10 4 18 4q14 0 23.5 -11t9.5 -26q0 -24 -21 -35q-24 -16 -62 -16q-43 0 -68.5 23t-25.5 63q0 60 79 115q-9 13 -10 29z" />
    <glyph glyph-name="Wcircumflex" unicode="&#x174;" horiz-adv-x="828" 
d="M806 606l-148 -549q-9 -33 -24 -47.5t-39 -14.5q-46 0 -63 62l-117 418h-2l-117 -418q-17 -62 -63 -62q-24 0 -38.5 14t-24.5 48l-148 549q-3 12 -3 23q0 25 15.5 40.5t41.5 15.5q44 0 58 -53l104 -421h2l116 421q15 53 58 53t58 -53l119 -421h2l102 421q13 53 57 53
q26 0 41.5 -15.5t15.5 -40.5q0 -11 -3 -23zM511 740q-17 0 -32 15l-64 68h-2l-64 -68q-15 -15 -32 -15q-14 0 -24 9.5t-10 23.5t12 29l64 76q27 32 55 32t55 -32l64 -76q12 -15 12 -29t-10 -23.5t-24 -9.5z" />
    <glyph glyph-name="wcircumflex" unicode="&#x175;" horiz-adv-x="755" 
d="M527 -5q-49 0 -65 54l-84 269h-2l-83 -269q-17 -54 -64 -54t-65 54l-120 361q-4 11 -4 23q0 23 15.5 38.5t39.5 15.5q40 0 54 -47l85 -286h2l83 283q15 50 58 50q41 0 57 -50l90 -283h2l80 286q14 47 54 47q24 0 39.5 -15.5t15.5 -38.5q0 -9 -4 -23l-120 -361
q-17 -54 -64 -54zM475 543q-17 0 -32 15l-64 68h-2l-64 -68q-15 -15 -32 -15q-14 0 -24 9.5t-10 23.5t12 29l64 76q27 32 55 32t55 -32l64 -76q12 -15 12 -29t-10 -23.5t-24 -9.5z" />
    <glyph glyph-name="Ycircumflex" unicode="&#x176;" horiz-adv-x="536" 
d="M268 -5q-26 0 -42.5 17t-16.5 45v221l-180 322q-9 16 -9 32q0 23 16 38t40 15q33 0 52 -34l140 -256h3l139 256q18 34 52 34q24 0 39 -15t15 -38q0 -16 -9 -32l-180 -322v-221q0 -28 -16.5 -45t-42.5 -17zM370 740q-17 0 -32 15l-64 68h-2l-64 -68q-15 -15 -32 -15
q-14 0 -24 9.5t-10 23.5t12 29l64 76q27 32 55 32t55 -32l64 -76q12 -15 12 -29t-10 -23.5t-24 -9.5z" />
    <glyph glyph-name="ycircumflex" unicode="&#x177;" horiz-adv-x="488" 
d="M116 -180h-7q-24 0 -38.5 14.5t-14.5 35.5t14.5 35t38.5 15q28 1 43.5 13t28.5 47l14 39l-159 389q-6 14 -6 26q0 23 16 38t40 15q37 0 52 -40l109 -289h2l103 289q14 40 52 40q23 0 38.5 -15t15.5 -38q0 -11 -5 -26l-177 -451q-31 -79 -65.5 -108t-94.5 -29zM345 543
q-17 0 -32 15l-64 68h-2l-64 -68q-15 -15 -32 -15q-14 0 -24 9.5t-10 23.5t12 29l64 76q27 32 55 32t55 -32l64 -76q12 -15 12 -29t-10 -23.5t-24 -9.5z" />
    <glyph glyph-name="Ydieresis" unicode="&#x178;" horiz-adv-x="536" 
d="M268 -5q-26 0 -42.5 17t-16.5 45v221l-180 322q-9 16 -9 32q0 23 16 38t40 15q33 0 52 -34l140 -256h3l139 256q18 34 52 34q24 0 39 -15t15 -38q0 -16 -9 -32l-180 -322v-221q0 -28 -16.5 -45t-42.5 -17zM369 760q-25 0 -43 18t-18 43t18 42.5t43 17.5t42.5 -17.5
t17.5 -42.5t-17.5 -43t-42.5 -18zM169 760q-25 0 -43 18t-18 43t18 42.5t43 17.5t42.5 -17.5t17.5 -42.5t-17.5 -43t-42.5 -18z" />
    <glyph glyph-name="Zacute" unicode="&#x179;" horiz-adv-x="538" 
d="M443 0h-345q-29 0 -45.5 16t-16.5 40q0 32 36 86l283 430v2h-250q-26 0 -41.5 14.5t-15.5 38.5t15.5 38.5t41.5 14.5h333q29 0 45.5 -16t16.5 -40q0 -32 -34 -82l-285 -434v-2h262q26 0 41.5 -14.5t15.5 -38.5t-15.5 -38.5t-41.5 -14.5zM234 822l58 66q15 17 35 17
q19 0 32 -12t13 -31q0 -20 -14 -35l-59 -63q-18 -19 -38 -19q-17 0 -29 12t-12 29q0 19 14 36z" />
    <glyph glyph-name="zacute" unicode="&#x17a;" horiz-adv-x="471" 
d="M384 0h-298q-23 0 -37 13.5t-14 35.5q0 28 35 69l222 264v2h-192q-24 0 -37.5 14t-13.5 35t13.5 35t37.5 14h284q23 0 37 -13.5t14 -35.5q0 -29 -35 -70l-219 -263v-2h203q24 0 37.5 -14t13.5 -35t-13.5 -35t-37.5 -14zM276 565q-14 -20 -37 -20q-19 0 -31 11t-12 29
q0 17 11 32l49 74q13 20 38 20q18 0 31 -11.5t13 -29.5q0 -16 -11 -32z" />
    <glyph glyph-name="Zdotaccent" unicode="&#x17b;" horiz-adv-x="538" 
d="M443 0h-345q-29 0 -45.5 16t-16.5 40q0 32 36 86l283 430v2h-250q-26 0 -41.5 14.5t-15.5 38.5t15.5 38.5t41.5 14.5h333q29 0 45.5 -16t16.5 -40q0 -32 -34 -82l-285 -434v-2h262q26 0 41.5 -14.5t15.5 -38.5t-15.5 -38.5t-41.5 -14.5zM204 818q0 28 19.5 47.5
t47.5 19.5t47.5 -19.5t19.5 -47.5t-19.5 -47.5t-47.5 -19.5t-47.5 19.5t-19.5 47.5z" />
    <glyph glyph-name="zdotaccent" unicode="&#x17c;" horiz-adv-x="471" 
d="M384 0h-298q-23 0 -37 13.5t-14 35.5q0 28 35 69l222 264v2h-192q-24 0 -37.5 14t-13.5 35t13.5 35t37.5 14h284q23 0 37 -13.5t14 -35.5q0 -29 -35 -70l-219 -263v-2h203q24 0 37.5 -14t13.5 -35t-13.5 -35t-37.5 -14zM173 622q0 28 19.5 47.5t47.5 19.5t47.5 -19.5
t19.5 -47.5t-19.5 -47.5t-47.5 -19.5t-47.5 19.5t-19.5 47.5z" />
    <glyph glyph-name="Zcaron" unicode="&#x17d;" horiz-adv-x="538" 
d="M443 0h-345q-29 0 -45.5 16t-16.5 40q0 32 36 86l283 430v2h-250q-26 0 -41.5 14.5t-15.5 38.5t15.5 38.5t41.5 14.5h333q29 0 45.5 -16t16.5 -40q0 -32 -34 -82l-285 -434v-2h262q26 0 41.5 -14.5t15.5 -38.5t-15.5 -38.5t-41.5 -14.5zM266 734q-28 0 -55 32l-64 76
q-12 15 -12 29t10 23.5t24 9.5q17 0 32 -15l64 -68h2l64 68q15 15 32 15q14 0 24 -9.5t10 -23.5t-12 -29l-64 -76q-27 -32 -55 -32z" />
    <glyph glyph-name="zcaron" unicode="&#x17e;" horiz-adv-x="471" 
d="M384 0h-298q-23 0 -37 13.5t-14 35.5q0 28 35 69l222 264v2h-192q-24 0 -37.5 14t-13.5 35t13.5 35t37.5 14h284q23 0 37 -13.5t14 -35.5q0 -29 -35 -70l-219 -263v-2h203q24 0 37.5 -14t13.5 -35t-13.5 -35t-37.5 -14zM239 538q-28 0 -55 32l-64 76q-12 15 -12 29
t10 23.5t24 9.5q17 0 32 -15l64 -68h2l64 68q15 15 32 15q14 0 24 -9.5t10 -23.5t-12 -29l-64 -76q-27 -32 -55 -32z" />
    <glyph glyph-name="florin" unicode="&#x192;" 
d="M410 324h-70l-52 -344q-13 -87 -53.5 -123.5t-120.5 -36.5h-6q-24 0 -37.5 13.5t-13.5 34.5q0 22 13.5 35.5t37.5 13.5q33 0 50 14.5t22 50.5l53 342h-40q-22 0 -34.5 11.5t-12.5 31.5q0 19 12.5 30.5t34.5 11.5h53l17 111q14 88 53 124t119 36h6q24 0 37.5 -13.5
t13.5 -34.5q0 -22 -14 -35.5t-37 -13.5q-33 0 -49 -14.5t-22 -50.5l-17 -109h57q22 0 34.5 -11.5t12.5 -30.5q0 -20 -12.5 -31.5t-34.5 -11.5z" />
    <glyph glyph-name="Aringacute" unicode="&#x1fa;" horiz-adv-x="617" 
d="M351 780q-15 -12 -31 -12q-17 0 -29.5 11.5t-12.5 29.5q0 21 19 37l54 47q13 12 31 12t30.5 -11.5t12.5 -29.5q0 -23 -21 -40zM531 -5q-42 0 -56 41l-37 106h-259l-37 -106q-14 -41 -56 -41q-23 0 -40 15t-17 40q0 10 4 22l178 486q7 17 15 24q-19 25 -19 61
q0 43 29 71.5t73 28.5t73 -28.5t29 -71.5q0 -35 -19 -60q10 -8 16 -26l176 -485q4 -12 4 -22q0 -25 -17 -40t-40 -15zM309 592q22 0 35.5 14t13.5 37t-13.5 37t-35.5 14t-35.5 -14t-13.5 -37t13.5 -37t35.5 -14zM307 511l-92 -264h186l-91 264h-3z" />
    <glyph glyph-name="aringacute" unicode="&#x1fb;" horiz-adv-x="523" 
d="M304 774q-16 -14 -32 -14q-17 0 -29.5 12t-12.5 30q0 20 18 36l54 54q13 13 31 13t30.5 -12t12.5 -30q0 -21 -20 -37zM479 80q9 -16 9 -33q0 -22 -16 -37t-40 -15q-31 0 -47 23l-16 24h-1q-45 -53 -142 -53q-85 0 -130 38t-45 108q0 76 50.5 115t141.5 39h99q6 0 6 6v12
q0 89 -108 89q-46 0 -88 -20q-15 -6 -29 -6q-20 0 -33 12.5t-13 33.5q0 30 28 44q57 33 147 33q101 0 151.5 -48t50.5 -139v-152q0 -29 10 -48zM242 80q50 0 78 19.5t28 56.5v43q0 6 -6 6h-80q-55 0 -79.5 -16t-24.5 -49q0 -60 84 -60zM266 529q-44 0 -73 28.5t-29 71.5
t29 71.5t73 28.5t73 -28.5t29 -71.5t-29 -71.5t-73 -28.5zM266 578q22 0 35.5 14t13.5 37t-13.5 37t-35.5 14t-35.5 -14t-13.5 -37t13.5 -37t35.5 -14z" />
    <glyph glyph-name="AEacute" unicode="&#x1fc;" horiz-adv-x="922" 
d="M819 0h-340q-24 0 -38 14t-14 38v84q0 6 -6 6h-221l-56 -110q-19 -37 -55 -37q-24 0 -41 15.5t-17 40.5q0 15 9 33l286 543q27 53 85 53h408q27 0 43.5 -14.5t16.5 -38.5t-16.5 -38.5t-43.5 -14.5h-268q-6 0 -6 -6v-166q0 -6 6 -6h218q27 0 43.5 -14.5t16.5 -38.5
t-16.5 -38.5t-43.5 -14.5h-218q-6 0 -6 -6v-172q0 -6 6 -6h268q27 0 43.5 -14.5t16.5 -38.5t-16.5 -38.5t-43.5 -14.5zM424 575l-170 -328h167q6 0 6 6v322h-3zM455 822l58 66q15 17 35 17q19 0 32 -12t13 -31q0 -20 -14 -35l-59 -63q-18 -19 -38 -19q-17 0 -29 12t-12 29
q0 19 14 36z" />
    <glyph glyph-name="aeacute" unicode="&#x1fd;" horiz-adv-x="813" 
d="M564 -11q-113 0 -167 68h-2q-32 -38 -71.5 -53t-97.5 -15q-85 0 -130 38t-45 108q0 76 50.5 115t141.5 39h99q6 0 6 6v12q0 89 -108 89q-41 0 -88 -20q-15 -6 -29 -6q-20 0 -33 12.5t-13 33.5q0 30 28 44q57 33 147 33q107 0 155 -56h1q54 56 147 56q74 0 125.5 -35
t72.5 -98q15 -48 15 -116q0 -18 -10.5 -28.5t-28.5 -10.5h-269q-6 0 -6 -6q0 -17 7 -37q24 -73 110 -73q49 0 98 33q23 16 41 16q21 0 34 -13t13 -34q0 -26 -23 -44q-71 -58 -170 -58zM460 289h189q6 0 6 6q0 23 -6 41q-10 29 -35.5 45.5t-59.5 16.5t-59 -16.5t-35 -45.5
q-6 -18 -6 -41q0 -6 6 -6zM242 80q50 0 78 19.5t28 56.5v43q0 6 -6 6h-80q-55 0 -79.5 -16t-24.5 -49q0 -60 84 -60zM456 565q-14 -20 -37 -20q-19 0 -31 11t-12 29q0 17 11 32l49 74q13 20 38 20q18 0 31 -11.5t13 -29.5q0 -16 -11 -32z" />
    <glyph glyph-name="Oslashacute" unicode="&#x1fe;" horiz-adv-x="627" 
d="M135 -16q-13 -19 -31 -19q-14 0 -23.5 8.5t-9.5 23.5q0 11 7 22l35 58q-25 33 -38 75q-20 61 -20 188t20 188q26 80 87.5 121.5t150.5 41.5q85 0 147 -40l27 45q12 20 30 20q14 0 23.5 -9t9.5 -24q0 -11 -6 -22l-33 -55q26 -34 41 -78q20 -61 20 -188t-20 -188
q-26 -80 -88 -121.5t-151 -41.5q-88 0 -150 41zM174 340q0 -111 11 -149l216 366q-35 29 -88 29q-96 0 -125 -89q-14 -41 -14 -157zM453 340q0 111 -13 153l-217 -368q34 -31 90 -31q97 0 126 89q14 41 14 157zM281 822l58 66q15 17 35 17q19 0 32 -12t13 -31q0 -20 -14 -35
l-59 -63q-18 -19 -38 -19q-17 0 -29 12t-12 29q0 19 14 36z" />
    <glyph glyph-name="oslashacute" unicode="&#x1ff;" horiz-adv-x="523" 
d="M261 -11q-73 0 -123 32l-31 -43q-9 -13 -23 -13q-10 0 -17.5 7t-7.5 17t7 20l33 47q-24 29 -36 67q-16 49 -16 118t16 118q21 64 72.5 99t125.5 35q72 0 122 -32l31 43q11 14 24 14q10 0 17.5 -7t7.5 -17q0 -9 -8 -20l-33 -47q25 -29 38 -68q16 -49 16 -118t-16 -118
q-21 -65 -72.5 -99.5t-126.5 -34.5zM160 241q0 -56 10 -87v-2l152 223q-25 19 -61 19q-71 0 -91 -66q-10 -31 -10 -87zM261 88q72 0 92 66q10 31 10 87t-10 87q-1 0 -1 1l-151 -222q23 -19 60 -19zM296 565q-14 -20 -37 -20q-19 0 -31 11t-12 29q0 17 11 32l49 74
q13 20 38 20q18 0 31 -11.5t13 -29.5q0 -16 -11 -32z" />
    <glyph glyph-name="Scommaaccent" unicode="&#x218;" horiz-adv-x="587" 
d="M287 -11q-118 0 -212 61q-30 19 -30 51q0 22 15 38t38 16q19 0 38 -11q82 -49 157 -49q62 0 97 26.5t35 71.5q0 39 -27.5 62t-95.5 32l-35 5q-206 27 -206 195q0 92 62.5 148t166.5 56q114 0 185 -46q30 -17 30 -48q0 -23 -14.5 -37.5t-37.5 -14.5q-17 0 -37 9
q-64 31 -127 31q-52 0 -80 -25t-28 -66q0 -38 29 -60t95 -32l34 -5q206 -28 206 -199q0 -94 -67 -151.5t-191 -57.5zM329 -184q-12 -39 -46 -39q-21 0 -35 12.5t-14 33.5q0 12 4 23l22 67q12 39 45 39q22 0 36 -12t14 -33q0 -9 -4 -23z" />
    <glyph glyph-name="scommaaccent" unicode="&#x219;" horiz-adv-x="498" 
d="M250 -11q-103 0 -176 49q-27 17 -27 45q0 21 14.5 36t36.5 15q16 0 35 -11q63 -39 123 -39q41 0 65 15t24 42q0 24 -17.5 36.5t-62.5 16.5l-52 5q-148 16 -148 142q0 70 49 111t138 41q79 0 146 -36q34 -19 34 -46q0 -21 -13 -35t-34 -14q-14 0 -35 11q-54 26 -104 26
q-36 0 -54.5 -14t-18.5 -36t17.5 -34.5t61.5 -16.5l52 -5q149 -15 149 -142q0 -74 -53.5 -118t-149.5 -44zM275 -184q-12 -39 -46 -39q-21 0 -35 12.5t-14 33.5q0 12 4 23l22 67q12 39 45 39q22 0 36 -12t14 -33q0 -9 -4 -23z" />
    <glyph glyph-name="uni021A" unicode="&#x21a;" horiz-adv-x="550" 
d="M210 574h-135q-27 0 -43.5 14.5t-16.5 38.5t16.5 38.5t43.5 14.5h400q27 0 43.5 -14.5t16.5 -38.5t-16.5 -38.5t-43.5 -14.5h-135q-6 0 -6 -6v-511q0 -28 -16.5 -45t-42.5 -17t-42.5 17t-16.5 45v511q0 6 -6 6zM295 -184q-12 -39 -46 -39q-21 0 -35 12.5t-14 33.5
q0 12 4 23l22 67q12 39 45 39q22 0 36 -12t14 -33q0 -9 -4 -23z" />
    <glyph glyph-name="uni021B" unicode="&#x21b;" horiz-adv-x="322" 
d="M73 395h-14q-21 0 -33.5 11.5t-12.5 31.5t12.5 32t33.5 12h14q7 0 7 6v88q0 27 16 43t41 16q24 0 39.5 -16t15.5 -43v-88q0 -6 6 -6h51q21 0 33.5 -12t12.5 -32t-12.5 -31.5t-33.5 -11.5h-51q-6 0 -6 -6v-240q0 -29 10.5 -40.5t41.5 -14.5q25 -2 38 -16t13 -34
q0 -22 -15.5 -36t-45.5 -14h-9q-78 0 -111.5 36t-33.5 116v243q0 6 -7 6zM204 -184q-12 -39 -46 -39q-21 0 -35 12.5t-14 33.5q0 12 4 23l22 67q12 39 45 39q22 0 36 -12t14 -33q0 -9 -4 -23z" />
    <glyph glyph-name="dotlessj" unicode="&#x237;" horiz-adv-x="258" 
d="M32 -180q-25 0 -38.5 13t-13.5 35q0 44 46 51q27 5 37 17t10 43v449q0 27 15.5 43t40.5 16t40.5 -16t15.5 -43v-448q0 -84 -37 -122t-116 -38z" />
    <glyph glyph-name="circumflex" unicode="&#x2c6;" horiz-adv-x="444" 
d="M319 543q-17 0 -32 15l-64 68h-2l-64 -68q-15 -15 -32 -15q-14 0 -24 9.5t-10 23.5t12 29l64 76q27 32 55 32t55 -32l64 -76q12 -15 12 -29t-10 -23.5t-24 -9.5z" />
    <glyph glyph-name="caron" unicode="&#x2c7;" horiz-adv-x="444" 
d="M222 538q-28 0 -55 32l-64 76q-12 15 -12 29t10 23.5t24 9.5q17 0 32 -15l64 -68h2l64 68q15 15 32 15q14 0 24 -9.5t10 -23.5t-12 -29l-64 -76q-27 -32 -55 -32z" />
    <glyph glyph-name="uni02C9" unicode="&#x2c9;" horiz-adv-x="444" 
d="M114 863h215q21 0 32.5 -11t11.5 -29t-11.5 -29.5t-32.5 -11.5h-215q-21 0 -32.5 11.5t-11.5 29.5t11.5 29t32.5 11z" />
    <glyph glyph-name="breve" unicode="&#x2d8;" horiz-adv-x="444" 
d="M222 554q-60 0 -100 33t-40 77q0 14 8.5 23t23.5 9q21 0 34 -26q20 -41 74 -41q55 0 73 41q13 26 35 26q14 0 23 -9t9 -23q0 -44 -40 -77t-100 -33z" />
    <glyph glyph-name="dotaccent" unicode="&#x2d9;" horiz-adv-x="444" 
d="M155 622q0 28 19.5 47.5t47.5 19.5t47.5 -19.5t19.5 -47.5t-19.5 -47.5t-47.5 -19.5t-47.5 19.5t-19.5 47.5z" />
    <glyph glyph-name="ring" unicode="&#x2da;" horiz-adv-x="444" 
d="M222 529q-44 0 -73 28.5t-29 71.5t29 71.5t73 28.5t73 -28.5t29 -71.5t-29 -71.5t-73 -28.5zM222 578q22 0 35.5 14t13.5 37t-13.5 37t-35.5 14t-35.5 -14t-13.5 -37t13.5 -37t35.5 -14z" />
    <glyph glyph-name="ogonek" unicode="&#x2db;" horiz-adv-x="444" 
d="M228 -185q-43 0 -68.5 23t-25.5 63q0 54 62 99q14 10 26 10h82q4 0 5 -4t-3 -6q-82 -48 -82 -84q0 -21 20 -21q4 0 16 4t18 4q14 0 23.5 -11t9.5 -26q0 -22 -21 -35q-27 -16 -62 -16z" />
    <glyph glyph-name="tilde" unicode="&#x2dc;" horiz-adv-x="444" 
d="M279 566q-29 0 -66 22q-28 18 -43 18q-16 0 -34 -19q-15 -15 -32 -15q-16 0 -26 9.5t-10 25.5q0 15 11 31q37 50 86 50q29 0 66 -22q28 -18 43 -18q16 0 34 19q15 15 32 15q16 0 26 -9.5t10 -25.5q0 -15 -11 -31q-37 -50 -86 -50z" />
    <glyph glyph-name="hungarumlaut" unicode="&#x2dd;" horiz-adv-x="444" 
d="M316 568q-17 -26 -40 -26q-18 0 -30.5 12t-12.5 30q0 15 9 30l44 74q15 25 41 25q18 0 30.5 -11.5t12.5 -29.5q0 -16 -9 -29zM155 568q-17 -26 -40 -26q-18 0 -30.5 12t-12.5 30q0 15 9 30l44 74q15 25 41 25q18 0 30.5 -11.5t12.5 -29.5q0 -16 -9 -29z" />
    <glyph glyph-name="Delta" unicode="&#x394;" horiz-adv-x="617" 
d="M530 0h-444q-27 0 -41.5 13.5t-14.5 36.5q0 13 7 34l193 534q24 67 78 67q55 0 79 -67l192 -534q8 -24 8 -34q0 -23 -15.5 -36.5t-41.5 -13.5zM444 105q8 0 5 6l-140 401h-3l-140 -401q-2 -6 5 -6h273z" />
    <glyph glyph-name="Delta" unicode="&#x2206;" horiz-adv-x="617" 
d="M530 0h-444q-27 0 -41.5 13.5t-14.5 36.5q0 13 7 34l193 534q24 67 78 67q55 0 79 -67l192 -534q8 -24 8 -34q0 -23 -15.5 -36.5t-41.5 -13.5zM444 105q8 0 5 6l-140 401h-3l-140 -401q-2 -6 5 -6h273z" />
    <glyph glyph-name="Omega" unicode="&#x3a9;" horiz-adv-x="638" 
d="M534 0h-129q-25 0 -40 15t-15 38q0 20 8 33.5t33 32.5q36 27 53.5 77t17.5 144q0 115 -14 156q-14 42 -47 65.5t-82 23.5t-82 -23.5t-47 -65.5q-14 -41 -14 -156q0 -94 17.5 -144t53.5 -77q25 -19 33 -32.5t8 -33.5q0 -23 -15 -38t-40 -15h-129q-24 0 -39.5 15t-15.5 38
t15.5 38t39.5 15h29v2q-77 54 -77 232q0 127 20 188q26 79 90 121t153 42t153 -42t90 -121q20 -61 20 -188q0 -178 -77 -232v-2h29q24 0 39.5 -15t15.5 -38t-15.5 -38t-39.5 -15z" />
    <glyph glyph-name="Omega" unicode="&#x2126;" horiz-adv-x="638" 
d="M534 0h-129q-25 0 -40 15t-15 38q0 20 8 33.5t33 32.5q36 27 53.5 77t17.5 144q0 115 -14 156q-14 42 -47 65.5t-82 23.5t-82 -23.5t-47 -65.5q-14 -41 -14 -156q0 -94 17.5 -144t53.5 -77q25 -19 33 -32.5t8 -33.5q0 -23 -15 -38t-40 -15h-129q-24 0 -39.5 15t-15.5 38
t15.5 38t39.5 15h29v2q-77 54 -77 232q0 127 20 188q26 79 90 121t153 42t153 -42t90 -121q20 -61 20 -188q0 -178 -77 -232v-2h29q24 0 39.5 -15t15.5 -38t-15.5 -38t-39.5 -15z" />
    <glyph glyph-name="pi" unicode="&#x3c0;" horiz-adv-x="593" 
d="M509 382h-14q-6 0 -6 -6v-260q0 -20 20 -21q47 -5 47 -50q0 -23 -15 -37t-44 -14h-8q-60 0 -86 32t-26 99v251q0 6 -6 6h-151q-6 0 -6 -6v-322q0 -27 -15.5 -43t-40.5 -16t-40.5 16t-15.5 43v322q0 6 -7 6h-13q-25 0 -39 14t-14 36t14 36t39 14h427q25 0 39 -14t14 -36
t-14 -36t-39 -14z" />
    <glyph glyph-name="Wgrave" unicode="&#x1e80;" horiz-adv-x="828" 
d="M806 606l-148 -549q-9 -33 -24 -47.5t-39 -14.5q-46 0 -63 62l-117 418h-2l-117 -418q-17 -62 -63 -62q-24 0 -38.5 14t-24.5 48l-148 549q-3 12 -3 23q0 25 15.5 40.5t41.5 15.5q44 0 58 -53l104 -421h2l116 421q15 53 58 53t58 -53l119 -421h2l102 421q13 53 57 53
q26 0 41.5 -15.5t15.5 -40.5q0 -11 -3 -23zM375 888l58 -66q14 -17 14 -36q0 -17 -12 -29t-29 -12q-20 0 -38 19l-59 63q-14 15 -14 35q0 19 13 31t32 12q20 0 35 -17z" />
    <glyph glyph-name="wgrave" unicode="&#x1e81;" horiz-adv-x="755" 
d="M527 -5q-49 0 -65 54l-84 269h-2l-83 -269q-17 -54 -64 -54t-65 54l-120 361q-4 11 -4 23q0 23 15.5 38.5t39.5 15.5q40 0 54 -47l85 -286h2l83 283q15 50 58 50q41 0 57 -50l90 -283h2l80 286q14 47 54 47q24 0 39.5 -15.5t15.5 -38.5q0 -9 -4 -23l-120 -361
q-17 -54 -64 -54zM363 545q-23 0 -37 20l-51 73q-11 17 -11 32q0 18 13 29.5t31 11.5q24 0 38 -20l49 -74q11 -16 11 -32q0 -18 -12 -29t-31 -11z" />
    <glyph glyph-name="Wacute" unicode="&#x1e82;" horiz-adv-x="828" 
d="M806 606l-148 -549q-9 -33 -24 -47.5t-39 -14.5q-46 0 -63 62l-117 418h-2l-117 -418q-17 -62 -63 -62q-24 0 -38.5 14t-24.5 48l-148 549q-3 12 -3 23q0 25 15.5 40.5t41.5 15.5q44 0 58 -53l104 -421h2l116 421q15 53 58 53t58 -53l119 -421h2l102 421q13 53 57 53
q26 0 41.5 -15.5t15.5 -40.5q0 -11 -3 -23zM409 822l58 66q15 17 35 17q19 0 32 -12t13 -31q0 -20 -14 -35l-59 -63q-18 -19 -38 -19q-17 0 -29 12t-12 29q0 19 14 36z" />
    <glyph glyph-name="wacute" unicode="&#x1e83;" horiz-adv-x="755" 
d="M527 -5q-49 0 -65 54l-84 269h-2l-83 -269q-17 -54 -64 -54t-65 54l-120 361q-4 11 -4 23q0 23 15.5 38.5t39.5 15.5q40 0 54 -47l85 -286h2l83 283q15 50 58 50q41 0 57 -50l90 -283h2l80 286q14 47 54 47q24 0 39.5 -15.5t15.5 -38.5q0 -9 -4 -23l-120 -361
q-17 -54 -64 -54zM426 565q-14 -20 -37 -20q-19 0 -31 11t-12 29q0 17 11 32l49 74q13 20 38 20q18 0 31 -11.5t13 -29.5q0 -16 -11 -32z" />
    <glyph glyph-name="Wdieresis" unicode="&#x1e84;" horiz-adv-x="828" 
d="M806 606l-148 -549q-9 -33 -24 -47.5t-39 -14.5q-46 0 -63 62l-117 418h-2l-117 -418q-17 -62 -63 -62q-24 0 -38.5 14t-24.5 48l-148 549q-3 12 -3 23q0 25 15.5 40.5t41.5 15.5q44 0 58 -53l104 -421h2l116 421q15 53 58 53t58 -53l119 -421h2l102 421q13 53 57 53
q26 0 41.5 -15.5t15.5 -40.5q0 -11 -3 -23zM515 760q-25 0 -43 18t-18 43t18 42.5t43 17.5t42.5 -17.5t17.5 -42.5t-17.5 -43t-42.5 -18zM315 760q-25 0 -43 18t-18 43t18 42.5t43 17.5t42.5 -17.5t17.5 -42.5t-17.5 -43t-42.5 -18z" />
    <glyph glyph-name="wdieresis" unicode="&#x1e85;" horiz-adv-x="755" 
d="M527 -5q-49 0 -65 54l-84 269h-2l-83 -269q-17 -54 -64 -54t-65 54l-120 361q-4 11 -4 23q0 23 15.5 38.5t39.5 15.5q40 0 54 -47l85 -286h2l83 283q15 50 58 50q41 0 57 -50l90 -283h2l80 286q14 47 54 47q24 0 39.5 -15.5t15.5 -38.5q0 -9 -4 -23l-120 -361
q-17 -54 -64 -54zM478 562q-25 0 -43 18t-18 43t17.5 43t43.5 18q25 0 42.5 -18t17.5 -43t-17.5 -43t-42.5 -18zM278 562q-25 0 -43 18t-18 43t17.5 43t43.5 18q25 0 42.5 -18t17.5 -43t-17.5 -43t-42.5 -18z" />
    <glyph glyph-name="Ygrave" unicode="&#x1ef2;" horiz-adv-x="536" 
d="M268 -5q-26 0 -42.5 17t-16.5 45v221l-180 322q-9 16 -9 32q0 23 16 38t40 15q33 0 52 -34l140 -256h3l139 256q18 34 52 34q24 0 39 -15t15 -38q0 -16 -9 -32l-180 -322v-221q0 -28 -16.5 -45t-42.5 -17zM237 888l58 -66q14 -17 14 -36q0 -17 -12 -29t-29 -12
q-20 0 -38 19l-59 63q-14 15 -14 35q0 19 13 31t32 12q20 0 35 -17z" />
    <glyph glyph-name="ygrave" unicode="&#x1ef3;" horiz-adv-x="488" 
d="M116 -180h-7q-24 0 -38.5 14.5t-14.5 35.5t14.5 35t38.5 15q28 1 43.5 13t28.5 47l14 39l-159 389q-6 14 -6 26q0 23 16 38t40 15q37 0 52 -40l109 -289h2l103 289q14 40 52 40q23 0 38.5 -15t15.5 -38q0 -11 -5 -26l-177 -451q-31 -79 -65.5 -108t-94.5 -29zM248 545
q-23 0 -37 20l-51 73q-11 17 -11 32q0 18 13 29.5t31 11.5q24 0 38 -20l49 -74q11 -16 11 -32q0 -18 -12 -29t-31 -11z" />
    <glyph glyph-name="endash" unicode="&#x2013;" horiz-adv-x="519" 
d="M452 216h-385q-24 0 -38 13t-14 35t14 35t38 13h385q24 0 38 -13t14 -35t-14 -35t-38 -13z" />
    <glyph glyph-name="emdash" unicode="&#x2014;" horiz-adv-x="867" 
d="M800 216h-733q-24 0 -38 13t-14 35t14 35t38 13h733q24 0 38 -13t14 -35t-14 -35t-38 -13z" />
    <glyph glyph-name="quoteleft" unicode="&#x2018;" horiz-adv-x="224" 
d="M103 483q-21 0 -35 13.5t-14 34.5q0 11 3 21l30 95q12 38 48 38q21 0 35 -13.5t14 -34.5q0 -11 -3 -21l-30 -95q-12 -38 -48 -38z" />
    <glyph glyph-name="quoteright" unicode="&#x2019;" horiz-adv-x="224" 
d="M103 483q-21 0 -35 13.5t-14 34.5q0 11 3 21l30 95q12 38 48 38q21 0 35 -13.5t14 -34.5q0 -11 -3 -21l-30 -95q-12 -38 -48 -38z" />
    <glyph glyph-name="quotesinglbase" unicode="&#x201a;" horiz-adv-x="224" 
d="M103 -101q-21 0 -35 13.5t-14 34.5q0 11 3 21l30 95q12 38 48 38q21 0 35 -13.5t14 -34.5q0 -11 -3 -21l-30 -95q-12 -38 -48 -38z" />
    <glyph glyph-name="quotedblleft" unicode="&#x201c;" horiz-adv-x="393" 
d="M272 483q-21 0 -35 13.5t-14 34.5q0 11 3 21l30 95q12 38 48 38q21 0 35 -13.5t14 -34.5q0 -11 -3 -21l-30 -95q-12 -38 -48 -38zM103 483q-21 0 -35 13.5t-14 34.5q0 11 3 21l30 95q12 38 48 38q21 0 35 -13.5t14 -34.5q0 -11 -3 -21l-30 -95q-12 -38 -48 -38z" />
    <glyph glyph-name="quotedblright" unicode="&#x201d;" horiz-adv-x="393" 
d="M272 483q-21 0 -35 13.5t-14 34.5q0 11 3 21l30 95q12 38 48 38q21 0 35 -13.5t14 -34.5q0 -11 -3 -21l-30 -95q-12 -38 -48 -38zM103 483q-21 0 -35 13.5t-14 34.5q0 11 3 21l30 95q12 38 48 38q21 0 35 -13.5t14 -34.5q0 -11 -3 -21l-30 -95q-12 -38 -48 -38z" />
    <glyph glyph-name="quotedblbase" unicode="&#x201e;" horiz-adv-x="393" 
d="M272 -101q-21 0 -35 13.5t-14 34.5q0 11 3 21l30 95q12 38 48 38q21 0 35 -13.5t14 -34.5q0 -11 -3 -21l-30 -95q-12 -38 -48 -38zM103 -101q-21 0 -35 13.5t-14 34.5q0 11 3 21l30 95q12 38 48 38q21 0 35 -13.5t14 -34.5q0 -11 -3 -21l-30 -95q-12 -38 -48 -38z" />
    <glyph glyph-name="dagger" unicode="&#x2020;" horiz-adv-x="535" 
d="M327 451h108q22 0 36 -13.5t14 -33.5q0 -21 -14 -34.5t-36 -13.5h-108q-6 0 -6 -6v-478q0 -26 -15 -41.5t-39 -15.5t-38.5 15.5t-14.5 41.5v478q0 6 -6 6h-108q-22 0 -36 13.5t-14 34.5q0 20 14 33.5t36 13.5h108q6 0 6 6v172q0 25 15 40.5t39 15.5t38.5 -15.5
t14.5 -40.5v-172q0 -6 6 -6z" />
    <glyph glyph-name="daggerdbl" unicode="&#x2021;" horiz-adv-x="535" 
d="M214 -129v142q0 6 -6 6h-108q-22 0 -36 13.5t-14 34.5q0 20 14 33.5t36 13.5h108q6 0 6 6v260q0 6 -6 6h-108q-22 0 -36 13.5t-14 34.5q0 20 14 33.5t36 13.5h108q6 0 6 6v142q0 25 15 40.5t39 15.5t38.5 -15.5t14.5 -40.5v-142q0 -6 6 -6h108q22 0 36 -13.5t14 -33.5
q0 -21 -14 -34.5t-36 -13.5h-108q-6 0 -6 -6v-260q0 -6 6 -6h108q22 0 36 -13.5t14 -33.5q0 -21 -14 -34.5t-36 -13.5h-108q-6 0 -6 -6v-142q0 -25 -14.5 -40.5t-38.5 -15.5t-39 15.5t-15 40.5z" />
    <glyph glyph-name="bullet" unicode="&#x2022;" horiz-adv-x="458" 
d="M229 169q-58 0 -98.5 40.5t-40.5 98.5t40.5 98.5t98.5 40.5t98.5 -40.5t40.5 -98.5t-40.5 -98.5t-98.5 -40.5z" />
    <glyph glyph-name="ellipsis" unicode="&#x2026;" horiz-adv-x="740" 
d="M620 -9q-28 0 -49 20.5t-21 49.5t21 49.5t49 20.5t48.5 -20.5t20.5 -49.5t-20.5 -49.5t-48.5 -20.5zM373 -9q-29 0 -49.5 20.5t-20.5 49.5t20.5 49.5t49.5 20.5t49.5 -20.5t20.5 -49.5t-20.5 -49.5t-49.5 -20.5zM126 -9q-28 0 -48.5 20.5t-20.5 49.5t20.5 49.5t48.5 20.5
q29 0 49.5 -20.5t20.5 -49.5t-20.5 -49.5t-49.5 -20.5z" />
    <glyph glyph-name="perthousand" unicode="&#x2030;" horiz-adv-x="1090" 
d="M206 -16q-16 0 -26 10t-10 26q0 12 6 23l364 630q13 22 36 22q16 0 26 -10t10 -26q0 -11 -7 -23l-364 -629q-12 -23 -35 -23zM192 330q-45 0 -77.5 21.5t-43.5 57.5q-9 27 -9 100t9 100q11 36 43.5 57.5t77.5 21.5t77.5 -21.5t43.5 -57.5q9 -27 9 -100t-9 -100
q-11 -36 -43.5 -57.5t-77.5 -21.5zM192 402q35 0 44 29q5 15 5 78t-5 78q-9 29 -44 29t-44 -29q-5 -15 -5 -78t5 -78q9 -29 44 -29zM898 -9q-45 0 -77.5 21.5t-43.5 57.5q-9 27 -9 100t9 100q11 36 43.5 57.5t77.5 21.5t77.5 -21.5t43.5 -57.5q9 -27 9 -100t-9 -100
q-11 -36 -43.5 -57.5t-77.5 -21.5zM589 -9q-45 0 -77.5 21.5t-43.5 57.5q-9 27 -9 100t9 100q11 36 43.5 57.5t77.5 21.5t77.5 -21.5t43.5 -57.5q9 -27 9 -100t-9 -100q-11 -36 -43.5 -57.5t-77.5 -21.5zM898 63q35 0 44 29q5 15 5 78t-5 78q-9 29 -44 29t-44 -29
q-5 -15 -5 -78t5 -78q9 -29 44 -29zM589 63q35 0 44 29q5 15 5 78t-5 78q-9 29 -44 29t-44 -29q-5 -15 -5 -78t5 -78q9 -29 44 -29z" />
    <glyph glyph-name="guilsinglleft" unicode="&#x2039;" horiz-adv-x="323" 
d="M226 74q-19 0 -34 15l-136 137q-20 20 -20 38t20 38l136 137q15 15 34 15q18 0 29.5 -11.5t11.5 -29.5q0 -19 -16 -35l-108 -109q-5 -5 0 -10l108 -109q16 -16 16 -35q0 -18 -11.5 -29.5t-29.5 -11.5z" />
    <glyph glyph-name="guilsinglright" unicode="&#x203a;" horiz-adv-x="323" 
d="M97 74q-18 0 -29.5 11.5t-11.5 29.5q0 19 16 35l108 109q5 5 0 10l-108 109q-16 16 -16 35q0 18 11.5 29.5t29.5 11.5q19 0 34 -15l136 -137q20 -20 20 -38t-20 -38l-136 -137q-15 -15 -34 -15z" />
    <glyph glyph-name="fraction" unicode="&#x2044;" horiz-adv-x="236" 
d="M-67 -16q-16 0 -26 10t-10 26q0 12 6 23l364 630q13 22 36 22q16 0 26 -10t10 -26q0 -11 -7 -23l-364 -629q-14 -23 -35 -23z" />
    <glyph glyph-name="zero.superior" unicode="&#x2070;" horiz-adv-x="349" 
d="M174 422q-102 0 -131 86q-9 29 -9 125t9 125q29 86 131 86q103 0 132 -86q9 -29 9 -125t-9 -125q-29 -86 -132 -86zM174 499q38 0 48 32q4 12 4 102t-4 102q-10 32 -48 32q-37 0 -47 -32q-4 -12 -4 -102t4 -102q10 -32 47 -32z" />
    <glyph glyph-name="four.superior" unicode="&#x2074;" horiz-adv-x="349" 
d="M243 425q-18 0 -30 11.5t-12 31.5v18q0 6 -6 6h-136q-19 0 -30 10t-11 27q0 19 17 56l106 227q13 29 40 29q17 0 28.5 -10.5t11.5 -28.5q0 -14 -5 -24l-102 -211v-1h81q6 0 6 6v49q0 21 11.5 32.5t30.5 11.5q18 0 29 -11.5t11 -32.5v-49q0 -6 6 -6h7q18 0 28 -10t10 -27
t-10 -27t-28 -10h-7q-6 0 -6 -6v-18q0 -20 -11 -31.5t-29 -11.5z" />
    <glyph glyph-name="five.superior" unicode="&#x2075;" horiz-adv-x="349" 
d="M169 422q-77 0 -111 53q-11 14 -11 30q0 15 10.5 26t27.5 11q20 0 36 -19q24 -27 48 -27q38 0 49 32q4 11 4 33q0 23 -4 35q-10 29 -45 29q-25 0 -42 -17q-17 -16 -42 -16q-40 0 -40 43v163q0 38 37 38h181q19 0 29.5 -10.5t10.5 -27.5q0 -16 -10.5 -25.5t-29.5 -9.5
h-133q-6 0 -6 -6v-80h1q23 21 62 21q87 0 109 -70q8 -27 8 -65q0 -32 -9 -61q-27 -80 -130 -80z" />
    <glyph glyph-name="six.superior" unicode="&#x2076;" horiz-adv-x="349" 
d="M174 422q-63 0 -103 36t-40 95q0 44 34 106l87 157q15 25 40 25q18 0 29.5 -10.5t11.5 -28.5q0 -13 -7 -24l-56 -101l1 -1q10 4 24 4q54 0 88.5 -35t34.5 -92q0 -59 -40 -95t-104 -36zM175 495q26 0 41.5 16t15.5 41t-15.5 41t-41.5 16q-27 0 -42.5 -16t-15.5 -41
t15.5 -41t42.5 -16z" />
    <glyph glyph-name="seven.superior" unicode="&#x2077;" horiz-adv-x="349" 
d="M181 454q-12 -29 -40 -29q-18 0 -29.5 11t-11.5 29q0 10 4 19l117 277v2h-91q-6 0 -6 -6v-14q0 -18 -11.5 -29.5t-29.5 -11.5t-29.5 11.5t-11.5 29.5v55q0 38 37 38h198q40 0 40 -39q0 -19 -19 -66z" />
    <glyph glyph-name="eight.superior" unicode="&#x2078;" horiz-adv-x="349" 
d="M175 422q-64 0 -104 34.5t-40 91.5q0 62 50 94v2q-42 31 -42 80q0 50 36.5 85t99.5 35q62 0 98.5 -35t36.5 -85q0 -51 -42 -80v-2q50 -32 50 -94q0 -56 -40 -91t-103 -35zM175 674q22 0 36 14t14 35t-14 35t-36 14q-23 0 -37 -14t-14 -35t14 -35t37 -14zM175 494
q26 0 42 16t16 41t-16 41t-42 16q-27 0 -43 -16t-16 -41t16 -41t43 -16z" />
    <glyph glyph-name="nine.superior" unicode="&#x2079;" horiz-adv-x="349" 
d="M175 844q63 0 103 -36t40 -95q0 -44 -34 -106l-87 -157q-15 -25 -40 -25q-18 0 -29.5 10.5t-11.5 28.5q0 13 7 24l56 101l-1 1q-10 -4 -24 -4q-54 0 -88.5 35t-34.5 92q0 59 40 95t104 36zM174 771q-26 0 -41.5 -16t-15.5 -41t15.5 -41t41.5 -16q27 0 42.5 16t15.5 41
t-15.5 41t-42.5 16z" />
    <glyph glyph-name="zero.inferior" unicode="&#x2080;" horiz-adv-x="349" 
d="M174 -164q-102 0 -131 86q-9 29 -9 125t9 125q29 86 131 86q103 0 132 -86q9 -29 9 -125t-9 -125q-29 -86 -132 -86zM174 -87q38 0 48 32q4 12 4 102t-4 102q-10 32 -48 32q-37 0 -47 -32q-4 -12 -4 -102t4 -102q10 -32 47 -32z" />
    <glyph glyph-name="one.inferior" unicode="&#x2081;" horiz-adv-x="349" 
d="M200 -161q-19 0 -31 13t-12 34v263h-2l-32 -21q-13 -8 -25 -8q-16 0 -26.5 11.5t-10.5 27.5q0 22 23 38l53 36q31 22 56 22q23 0 36.5 -13.5t13.5 -37.5v-318q0 -21 -12 -34t-31 -13z" />
    <glyph glyph-name="two.inferior" unicode="&#x2082;" horiz-adv-x="349" 
d="M274 -156h-198q-20 0 -31 10.5t-11 28.5q0 22 32 57l128 140q28 29 28 60q0 20 -13 32.5t-35 12.5q-34 0 -53 -34q-14 -26 -39 -26q-17 0 -27.5 10t-10.5 26q0 12 4 21q11 32 45 54t82 22q59 0 96 -32.5t37 -85.5t-48 -104l-109 -117v-1h123q19 0 29.5 -10t10.5 -26
q0 -38 -40 -38z" />
    <glyph glyph-name="three.inferior" unicode="&#x2083;" horiz-adv-x="349" 
d="M175 -164q-46 0 -80.5 17.5t-47.5 48.5q-4 9 -4 19q0 15 10.5 26t28.5 11q21 0 39 -24q20 -25 52 -25q25 0 40 15t15 39t-16 38.5t-44 14.5q-18 0 -28 10t-10 26t10 26t28 10q23 0 37 13t14 36q0 22 -13.5 35t-36.5 13q-29 0 -47 -23q-19 -22 -38 -22q-16 0 -26.5 9.5
t-10.5 25.5q0 10 4 19q11 27 43.5 45.5t77.5 18.5q61 0 97 -32t36 -82q0 -51 -45 -85v-1q21 -10 37.5 -35t16.5 -61q0 -56 -38.5 -91t-100.5 -35z" />
    <glyph glyph-name="four.inferior" unicode="&#x2084;" horiz-adv-x="349" 
d="M243 -161q-18 0 -30 11.5t-12 31.5v18q0 6 -6 6h-136q-19 0 -30 10t-11 27q0 19 17 56l106 227q13 29 40 29q17 0 28.5 -10.5t11.5 -28.5q0 -14 -5 -24l-102 -211v-1h81q6 0 6 6v49q0 21 11.5 32.5t30.5 11.5q18 0 29 -11.5t11 -32.5v-49q0 -6 6 -6h7q18 0 28 -10t10 -27
t-10 -27t-28 -10h-7q-6 0 -6 -6v-18q0 -20 -11 -31.5t-29 -11.5z" />
    <glyph glyph-name="five.inferior" unicode="&#x2085;" horiz-adv-x="349" 
d="M169 -164q-77 0 -111 53q-11 14 -11 30q0 15 10.5 26t27.5 11q20 0 36 -19q24 -27 48 -27q38 0 49 32q4 11 4 33q0 23 -4 35q-10 29 -45 29q-25 0 -42 -17q-17 -16 -42 -16q-40 0 -40 43v163q0 38 37 38h181q19 0 29.5 -10.5t10.5 -27.5q0 -16 -10.5 -25.5t-29.5 -9.5
h-133q-6 0 -6 -6v-80h1q23 21 62 21q87 0 109 -70q8 -27 8 -65q0 -32 -9 -61q-27 -80 -130 -80z" />
    <glyph glyph-name="six.inferior" unicode="&#x2086;" horiz-adv-x="349" 
d="M174 -164q-63 0 -103 36t-40 95q0 44 34 106l87 157q15 25 40 25q18 0 29.5 -10.5t11.5 -28.5q0 -13 -7 -24l-56 -101l1 -1q10 4 24 4q54 0 88.5 -35t34.5 -92q0 -59 -40 -95t-104 -36zM175 -91q26 0 41.5 16t15.5 41t-15.5 41t-41.5 16q-27 0 -42.5 -16t-15.5 -41
t15.5 -41t42.5 -16z" />
    <glyph glyph-name="seven.inferior" unicode="&#x2087;" horiz-adv-x="349" 
d="M181 -132q-12 -29 -40 -29q-18 0 -29.5 11t-11.5 29q0 10 4 19l117 277v2h-91q-6 0 -6 -6v-14q0 -18 -11.5 -29.5t-29.5 -11.5t-29.5 11.5t-11.5 29.5v55q0 38 37 38h198q40 0 40 -39q0 -19 -19 -66z" />
    <glyph glyph-name="eight.inferior" unicode="&#x2088;" horiz-adv-x="349" 
d="M175 -164q-64 0 -104 34.5t-40 91.5q0 62 50 94v2q-42 31 -42 80q0 50 36.5 85t99.5 35q62 0 98.5 -35t36.5 -85q0 -51 -42 -80v-2q50 -32 50 -94q0 -56 -40 -91t-103 -35zM175 88q22 0 36 14t14 35t-14 35t-36 14q-23 0 -37 -14t-14 -35t14 -35t37 -14zM175 -92
q26 0 42 16t16 41t-16 41t-42 16q-27 0 -43 -16t-16 -41t16 -41t43 -16z" />
    <glyph glyph-name="nine.inferior" unicode="&#x2089;" horiz-adv-x="349" 
d="M175 258q63 0 103 -36t40 -95q0 -44 -34 -106l-87 -157q-15 -25 -40 -25q-18 0 -29.5 10.5t-11.5 28.5q0 13 7 24l56 101l-1 1q-10 -4 -24 -4q-54 0 -88.5 35t-34.5 92q0 59 40 95t104 36zM174 185q-26 0 -41.5 -16t-15.5 -41t15.5 -41t41.5 -16q27 0 42.5 16t15.5 41
t-15.5 41t-42.5 16z" />
    <glyph glyph-name="Euro" unicode="&#x20ac;" 
d="M101 232q0 6 -6 6h-18q-19 0 -30.5 11t-11.5 28t11.5 28t30.5 11h18q6 0 6 6v41q0 6 -6 6h-18q-19 0 -30.5 11t-11.5 28t11.5 28t30.5 11h18q6 0 6 6q0 54 13 94q22 69 74.5 106.5t129.5 37.5q67 0 115.5 -30t65.5 -72q4 -11 4 -23q0 -19 -14 -32.5t-34 -13.5
q-27 0 -48 28q-32 43 -89 43q-73 0 -95 -70q-9 -27 -9 -68q0 -6 6 -6h165q19 0 30.5 -11t11.5 -28t-11.5 -28t-30.5 -11h-165q-6 0 -6 -6v-41q0 -6 6 -6h125q19 0 30.5 -11t11.5 -28t-11.5 -28t-30.5 -11h-125q-6 0 -6 -6q0 -46 9 -73q22 -70 95 -70q57 0 89 43q21 28 48 28
q20 0 34 -13.5t14 -32.5q0 -12 -4 -23q-17 -42 -65.5 -72t-115.5 -30q-77 0 -129.5 37.5t-74.5 106.5q-13 40 -13 99z" />
    <glyph glyph-name="afii61289" unicode="&#x2113;" horiz-adv-x="446" 
d="M110 168q-15 -10 -30 -10q-19 0 -31 13t-12 31q0 23 25 41l55 42v206q0 95 39.5 147.5t111.5 52.5q62 0 99.5 -38.5t37.5 -108.5q0 -75 -41.5 -147.5t-134.5 -154.5v-94q0 -59 42 -59q17 0 39 13q16 9 30 9q17 0 29.5 -12.5t12.5 -30.5q0 -23 -18 -38q-51 -41 -114 -41
q-133 0 -133 157v27zM229 502v-139q81 82 81 180q0 60 -37 60q-44 0 -44 -101z" />
    <glyph glyph-name="trademark" unicode="&#x2122;" horiz-adv-x="850" 
d="M717 322v178h-2l-62 -134q-14 -29 -41 -29t-41 29l-64 134h-2v-178q0 -19 -10.5 -30t-28.5 -11t-28.5 11t-10.5 30v320q0 19 11 31t30 12q30 0 45 -34l98 -211h4l94 211q15 34 45 34q19 0 30 -12t11 -31v-320q0 -19 -10.5 -30t-28.5 -11t-28.5 11t-10.5 30zM78 680h245
q17 0 28 -10t11 -26t-11 -26.5t-28 -10.5h-75q-6 0 -6 -6v-277q0 -19 -12 -31t-30 -12t-29.5 12t-11.5 31v277q0 6 -6 6h-75q-17 0 -28 10.5t-11 26.5t11 26t28 10z" />
    <glyph glyph-name="estimated" unicode="&#x212e;" horiz-adv-x="599" 
d="M298 -11q-105 0 -169.5 72.5t-64.5 180.5t64.5 179.5t169.5 71.5q106 0 171 -69.5t66 -181.5h-369v-166q54 -52 132 -52q113 0 175 109l33 -21q-43 -65 -90.5 -94t-117.5 -29zM432 275v132q-60 55 -134 55q-79 0 -132 -55v-132h266z" />
    <glyph glyph-name="onethird" unicode="&#x2153;" horiz-adv-x="901" 
d="M215 269q-19 0 -31 13t-12 34v263h-2l-32 -21q-13 -8 -25 -8q-16 0 -26.5 11.5t-10.5 27.5q0 22 23 38l53 36q31 22 56 22q23 0 36.5 -13.5t13.5 -37.5v-318q0 -21 -12 -34t-31 -13zM237 -16q-16 0 -26 10t-10 26q0 12 6 23l364 630q13 22 36 22q16 0 26 -10t10 -26
q0 -11 -7 -23l-364 -629q-14 -23 -35 -23zM680 -8q-46 0 -80.5 17.5t-47.5 48.5q-4 9 -4 19q0 15 11 26t28 11q21 0 39 -24q20 -25 52 -25q25 0 40 15t15 39t-16 38.5t-44 14.5q-18 0 -28 10t-10 26t10 26t28 10q23 0 37 13t14 36q0 22 -13.5 35t-36.5 13q-29 0 -47 -23
q-19 -22 -38 -22q-16 0 -26.5 9.5t-10.5 25.5q0 10 4 19q11 27 43.5 45.5t77.5 18.5q61 0 97 -32t36 -82q0 -51 -45 -85v-1q21 -10 37.5 -35t16.5 -61q0 -56 -38.5 -91t-100.5 -35z" />
    <glyph glyph-name="twothirds" unicode="&#x2154;" horiz-adv-x="998" 
d="M319 274h-198q-20 0 -31 10.5t-11 28.5q0 22 32 57l128 140q28 29 28 60q0 20 -13 32.5t-35 12.5q-34 0 -53 -34q-14 -26 -39 -26q-17 0 -27.5 10t-10.5 26q0 12 4 21q11 32 45 54t82 22q59 0 96 -32.5t37 -85.5t-48 -104l-109 -117v-1h123q19 0 29.5 -10t10.5 -26
q0 -38 -40 -38zM324 -16q-16 0 -26 10t-10 26q0 12 6 23l364 630q13 22 36 22q16 0 26 -10t10 -26q0 -11 -7 -23l-364 -629q-14 -23 -35 -23zM767 -8q-46 0 -80.5 17.5t-47.5 48.5q-4 9 -4 19q0 15 10.5 26t28.5 11q21 0 39 -24q20 -25 52 -25q25 0 40 15t15 39t-16 38.5
t-44 14.5q-18 0 -28 10t-10 26t10 26t28 10q23 0 37 13t14 36q0 22 -13.5 35t-36.5 13q-29 0 -47 -23q-19 -22 -38 -22q-16 0 -26.5 9.5t-10.5 25.5q0 10 4 19q11 27 43.5 45.5t77.5 18.5q61 0 97 -32t36 -82q0 -51 -45 -85v-1q21 -10 37.5 -35t16.5 -61q0 -56 -38.5 -91
t-100.5 -35z" />
    <glyph glyph-name="oneeighth" unicode="&#x215b;" horiz-adv-x="903" 
d="M215 269q-19 0 -31 13t-12 34v263h-2l-32 -21q-13 -8 -25 -8q-16 0 -26.5 11.5t-10.5 27.5q0 22 23 38l53 36q31 22 56 22q23 0 36.5 -13.5t13.5 -37.5v-318q0 -21 -12 -34t-31 -13zM675 -8q-64 0 -104 34.5t-40 91.5q0 62 50 94v2q-42 31 -42 80q0 50 36.5 85t99.5 35
q62 0 98.5 -35t36.5 -85q0 -51 -42 -80v-2q50 -32 50 -94q0 -56 -40 -91t-103 -35zM675 244q22 0 36 14t14 35t-14 35t-36 14q-23 0 -37 -14t-14 -35t14 -35t37 -14zM675 64q26 0 42 16t16 41t-16 41t-42 16q-27 0 -43 -16t-16 -41t16 -41t43 -16zM237 -16q-16 0 -26 10
t-10 26q0 12 6 23l364 630q13 22 36 22q16 0 26 -10t10 -26q0 -11 -7 -23l-364 -629q-14 -23 -35 -23z" />
    <glyph glyph-name="threeeighths" unicode="&#x215c;" horiz-adv-x="972" 
d="M733 -8q-64 0 -104 34.5t-40 91.5q0 62 50 94v2q-42 31 -42 80q0 50 36.5 85t99.5 35q62 0 98.5 -35t36.5 -85q0 -51 -42 -80v-2q50 -32 50 -94q0 -56 -40 -91t-103 -35zM733 244q22 0 36 14t14 35t-14 35t-36 14q-23 0 -37 -14t-14 -35t14 -35t37 -14zM733 64
q26 0 42 16t16 41t-16 41t-42 16q-27 0 -43 -16t-16 -41t16 -41t43 -16zM295 -16q-16 0 -26 10t-10 26q0 12 6 23l364 630q13 22 36 22q16 0 26 -10t10 -26q0 -11 -7 -23l-364 -629q-14 -23 -35 -23zM227 266q-46 0 -80.5 17.5t-47.5 48.5q-4 9 -4 19q0 15 10.5 26t28.5 11
q21 0 39 -24q20 -25 52 -25q25 0 40 15t15 39t-16 38.5t-44 14.5q-18 0 -28 10t-10 26t10 26t28 10q23 0 37 13t14 36q0 22 -13.5 35t-36.5 13q-29 0 -47 -23q-19 -22 -38 -22q-16 0 -26.5 9.5t-10.5 25.5q0 10 4 19q11 27 43.5 45.5t77.5 18.5q61 0 97 -32t36 -82
q0 -51 -45 -85v-1q21 -10 37.5 -35t16.5 -61q0 -56 -38.5 -91t-100.5 -35z" />
    <glyph glyph-name="fiveeighths" unicode="&#x215d;" horiz-adv-x="964" 
d="M730 -8q-64 0 -104 34.5t-40 91.5q0 62 50 94v2q-42 31 -42 80q0 50 36.5 85t99.5 35q62 0 98.5 -35t36.5 -85q0 -51 -42 -80v-2q50 -32 50 -94q0 -56 -40 -91t-103 -35zM730 244q22 0 36 14t14 35t-14 35t-36 14q-23 0 -37 -14t-14 -35t14 -35t37 -14zM730 64
q26 0 42 16t16 41t-16 41t-42 16q-27 0 -43 -16t-16 -41t16 -41t43 -16zM292 -16q-16 0 -26 10t-10 26q0 12 6 23l364 630q13 22 36 22q16 0 26 -10t10 -26q0 -11 -7 -23l-364 -629q-14 -23 -35 -23zM217 266q-77 0 -111 53q-11 14 -11 30q0 15 10.5 26t27.5 11q20 0 36 -19
q24 -27 48 -27q38 0 49 32q4 11 4 33q0 23 -4 35q-10 29 -45 29q-25 0 -42 -17q-17 -16 -42 -16q-40 0 -40 43v163q0 38 37 38h181q19 0 29.5 -10.5t10.5 -27.5q0 -16 -10.5 -25.5t-29.5 -9.5h-133q-6 0 -6 -6v-80h1q23 21 62 21q87 0 109 -70q8 -27 8 -65q0 -32 -9 -61
q-27 -80 -130 -80z" />
    <glyph glyph-name="seveneighths" unicode="&#x215e;" horiz-adv-x="891" 
d="M670 -8q-64 0 -104 34.5t-40 91.5q0 62 50 94v2q-42 31 -42 80q0 50 36.5 85t99.5 35q62 0 98.5 -35t36.5 -85q0 -51 -42 -80v-2q50 -32 50 -94q0 -56 -40 -91t-103 -35zM670 244q22 0 36 14t14 35t-14 35t-36 14q-23 0 -37 -14t-14 -35t14 -35t37 -14zM670 64
q26 0 42 16t16 41t-16 41t-42 16q-27 0 -43 -16t-16 -41t16 -41t43 -16zM230 298q-12 -29 -40 -29q-18 0 -29.5 11t-11.5 29q0 10 4 19l117 277v2h-91q-6 0 -6 -6v-14q0 -18 -11.5 -29.5t-29.5 -11.5t-29.5 11.5t-11.5 29.5v55q0 38 37 38h198q40 0 40 -39q0 -19 -19 -66z
M232 -16q-16 0 -26 10t-10 26q0 12 6 23l364 630q13 22 36 22q16 0 26 -10t10 -26q0 -11 -7 -23l-364 -629q-14 -23 -35 -23z" />
    <glyph glyph-name="partialdiff" unicode="&#x2202;" horiz-adv-x="547" 
d="M251 -11q-92 0 -148 59t-56 151q0 93 58.5 157t149.5 64q85 0 139 -54h2q-1 105 -38.5 166.5t-107.5 61.5q-43 0 -87 -28q-17 -9 -31 -9q-19 0 -32 14t-13 33q0 26 22 42q57 45 145 45q118 0 182 -85t64 -246q0 -169 -63 -270t-186 -101zM261 90q57 0 90 50t41 144
q-52 44 -119 44q-55 0 -87 -33t-32 -94q0 -50 29 -80.5t78 -30.5z" />
    <glyph glyph-name="product" unicode="&#x220f;" horiz-adv-x="667" 
d="M528 -185q-26 0 -42.5 17t-16.5 45v751q0 6 -6 6h-259q-6 0 -6 -6v-751q0 -28 -16.5 -45t-42.5 -17t-42.5 17t-16.5 45v804q0 26 16.5 42.5t42.5 16.5h390q26 0 42 -16.5t16 -42.5v-804q0 -28 -16.5 -45t-42.5 -17z" />
    <glyph glyph-name="summation" unicode="&#x2211;" horiz-adv-x="538" 
d="M438 -180h-341q-29 0 -45.5 15t-16.5 40q0 30 28 91l158 352l-152 280q-32 57 -32 87q0 24 16 39.5t45 15.5h340q26 0 41 -14.5t15 -38.5t-14.5 -38.5t-41.5 -14.5h-259l145 -266q13 -23 13 -44q0 -20 -11 -45l-159 -353h271q27 0 41.5 -14.5t14.5 -38.5t-14.5 -38.5
t-41.5 -14.5z" />
    <glyph glyph-name="minus" unicode="&#x2212;" 
d="M446 228h-343q-24 0 -37.5 13.5t-13.5 34.5t13.5 34.5t37.5 13.5h343q24 0 37.5 -13.5t13.5 -34.5t-13.5 -34.5t-37.5 -13.5z" />
    <glyph glyph-name="uni2215" unicode="&#x2215;" horiz-adv-x="236" 
d="M-67 -16q-16 0 -26 10t-10 26q0 12 6 23l364 630q13 22 36 22q16 0 26 -10t10 -26q0 -11 -7 -23l-364 -629q-14 -23 -35 -23z" />
    <glyph glyph-name="uni2219" unicode="&#x2219;" horiz-adv-x="248" 
d="M53 265q0 29 21 50t50 21t50 -21t21 -50t-21 -50t-50 -21t-50 21t-21 50z" />
    <glyph glyph-name="radical" unicode="&#x221a;" horiz-adv-x="641" 
d="M320 -185q-41 0 -66 54l-112 228q-3 6 -9 3l-45 -22q-12 -5 -21 -5q-18 0 -29.5 12t-11.5 30q0 27 27 40l91 44q16 8 26 8q22 0 36 -26l105 -218h3l200 742q11 40 48 40q21 0 35 -13t14 -34q0 -5 -2 -17l-225 -811q-15 -55 -64 -55z" />
    <glyph glyph-name="infinity" unicode="&#x221e;" horiz-adv-x="763" 
d="M564 84q-91 0 -182 100q-94 -100 -184 -100q-69 0 -114.5 45.5t-45.5 116.5q0 72 46 117.5t116 45.5q85 0 181 -103q53 56 94.5 79.5t87.5 23.5q69 0 115.5 -45.5t46.5 -117.5q0 -71 -46 -116.5t-115 -45.5zM560 161q38 0 61 25.5t23 61.5t-22.5 60t-61.5 24
q-27 0 -55 -19.5t-70 -67.5q44 -47 71 -65.5t54 -18.5zM204 161q47 0 124 86q-41 47 -69 66t-55 19q-39 0 -62 -24t-23 -60q0 -37 23 -62t62 -25z" />
    <glyph glyph-name="integral" unicode="&#x222b;" horiz-adv-x="444" 
d="M120 -180q-12 0 -20 1q-21 2 -35 14.5t-14 33.5t14.5 35.5t38.5 14.5q33 0 47.5 20t14.5 67v535q0 106 38 152.5t120 46.5q12 0 20 -1q21 -2 35 -14.5t14 -33.5t-14.5 -35.5t-38.5 -14.5q-33 0 -47.5 -20t-14.5 -67v-535q0 -106 -38 -152.5t-120 -46.5z" />
    <glyph glyph-name="approxequal" unicode="&#x2248;" 
d="M362 298q-48 0 -105 35q-43 26 -69 26q-32 0 -55 -30q-16 -22 -39 -22q-17 0 -28.5 10.5t-11.5 28.5q0 16 10 32q20 32 53 51.5t70 19.5q48 0 105 -35q43 -26 69 -26q32 0 55 30q16 22 39 22q17 0 28.5 -10.5t11.5 -28.5q0 -16 -10 -32q-20 -32 -53 -51.5t-70 -19.5z
M362 103q-48 0 -105 35q-43 26 -69 26q-32 0 -55 -30q-16 -22 -39 -22q-17 0 -28.5 10.5t-11.5 28.5q0 16 10 32q20 32 53 51.5t70 19.5q48 0 105 -35q43 -26 69 -26q32 0 55 30q16 22 39 22q17 0 28.5 -10.5t11.5 -28.5q0 -16 -10 -32q-20 -32 -53 -51.5t-70 -19.5z" />
    <glyph glyph-name="notequal" unicode="&#x2260;" 
d="M193 35q-13 -24 -35 -24q-15 0 -26 10t-11 25q0 9 5 21l31 60h-54q-24 0 -37.5 13.5t-13.5 34.5t13.5 34.5t37.5 13.5h103l55 106h-158q-24 0 -37.5 13.5t-13.5 34.5t13.5 34.5t37.5 13.5h207l47 91q11 24 35 24q15 0 26 -10t11 -25q0 -11 -6 -21l-31 -59h54
q24 0 37.5 -13.5t13.5 -34.5t-13.5 -34.5t-37.5 -13.5h-103l-54 -106h157q24 0 37.5 -13.5t13.5 -34.5t-13.5 -34.5t-37.5 -13.5h-206z" />
    <glyph glyph-name="lessequal" unicode="&#x2264;" 
d="M202 364v-2l259 -105q36 -12 36 -48q0 -21 -13.5 -33.5t-34.5 -12.5q-9 0 -23 4l-322 135q-52 22 -52 61t52 61l322 135q14 4 23 4q21 0 34.5 -12.5t13.5 -33.5q0 -36 -36 -48zM446 0h-343q-24 0 -37.5 13.5t-13.5 34.5t13.5 34.5t37.5 13.5h343q24 0 37.5 -13.5
t13.5 -34.5t-13.5 -34.5t-37.5 -13.5z" />
    <glyph glyph-name="greaterequal" unicode="&#x2265;" 
d="M347 362v2l-259 105q-36 12 -36 48q0 21 13.5 33.5t34.5 12.5q9 0 23 -4l322 -135q52 -22 52 -61t-52 -61l-322 -135q-14 -4 -23 -4q-21 0 -34.5 12.5t-13.5 33.5q0 36 36 48zM446 0h-343q-24 0 -37.5 13.5t-13.5 34.5t13.5 34.5t37.5 13.5h343q24 0 37.5 -13.5
t13.5 -34.5t-13.5 -34.5t-37.5 -13.5z" />
    <glyph glyph-name="lozenge" unicode="&#x25ca;" horiz-adv-x="561" 
d="M280 -57q-24 0 -41 13.5t-34 48.5l-142 292q-8 18 -8 32t8 32l142 292q17 35 34 48.5t41 13.5q25 0 42 -13.5t34 -48.5l142 -292q8 -18 8 -32t-8 -32l-142 -292q-17 -35 -34 -48.5t-42 -13.5zM283 58l124 271l-126 271h-2l-125 -271l127 -271h2z" />
    <glyph glyph-name="uniF8FF" unicode="&#xf8ff;" horiz-adv-x="483" 
d="M454 0h-424q-30 0 -30 30v620q0 30 30 30h424q29 0 29 -30v-620q0 -30 -29 -30zM418 55q6 0 6 6v558q0 6 -6 6h-352q-7 0 -7 -6v-558q0 -6 7 -6h352zM228 231q-16 0 -26.5 10t-10.5 26v10q0 35 24 63l38 46q28 33 28 60q0 23 -14.5 37.5t-36.5 14.5q-21 0 -33 -9t-22 -31
q-12 -24 -32 -24q-15 0 -24.5 9t-9.5 24q0 4 2 14q10 36 41.5 59t80.5 23q54 0 88 -33t34 -82q0 -45 -33 -85l-42 -49q-15 -18 -15 -39v-8q0 -16 -10.5 -26t-26.5 -10zM228 106q-19 0 -32.5 13t-13.5 32t13.5 32t32.5 13q18 0 31.5 -13t13.5 -32t-13.5 -32t-31.5 -13z" />
    <glyph glyph-name="CR" horiz-adv-x="0" 
 />
    <glyph glyph-name="grave.cap" horiz-adv-x="444" 
d="M222 888l58 -66q14 -17 14 -36q0 -17 -12 -29t-29 -12q-20 0 -38 19l-59 63q-14 15 -14 35q0 19 13 31t32 12q20 0 35 -17z" />
    <glyph glyph-name="acute.cap" horiz-adv-x="444" 
d="M164 822l58 66q15 17 35 17q19 0 32 -12t13 -31q0 -20 -14 -35l-59 -63q-18 -19 -38 -19q-17 0 -29 12t-12 29q0 19 14 36z" />
    <glyph glyph-name="circumflex.cap" horiz-adv-x="444" 
d="M319 740q-17 0 -32 15l-64 68h-2l-64 -68q-15 -15 -32 -15q-14 0 -24 9.5t-10 23.5t12 29l64 76q27 32 55 32t55 -32l64 -76q12 -15 12 -29t-10 -23.5t-24 -9.5z" />
    <glyph glyph-name="caron.cap" horiz-adv-x="444" 
d="M222 734q-28 0 -55 32l-64 76q-12 15 -12 29t10 23.5t24 9.5q17 0 32 -15l64 -68h2l64 68q15 15 32 15q14 0 24 -9.5t10 -23.5t-12 -29l-64 -76q-27 -32 -55 -32z" />
    <glyph glyph-name="caron.alt" horiz-adv-x="444" 
d="M258 550q-12 -39 -46 -39q-21 0 -34.5 12.5t-13.5 33.5q0 11 3 22l22 67q12 39 46 39q21 0 34.5 -12.5t13.5 -33.5q0 -11 -3 -22z" />
    <glyph glyph-name="tilde.cap" horiz-adv-x="444" 
d="M279 758q-29 0 -66 22q-28 18 -43 18q-16 0 -34 -19q-15 -15 -32 -15q-16 0 -26 9.5t-10 25.5q0 15 11 31q37 50 86 50q29 0 66 -22q28 -18 43 -18q16 0 34 19q15 15 32 15q16 0 26 -9.5t10 -25.5q0 -15 -11 -31q-37 -50 -86 -50z" />
    <glyph glyph-name="dieresis.cap" horiz-adv-x="444" 
d="M322 760q-26 0 -43.5 18t-17.5 43t18 42.5t43 17.5t42.5 -17.5t17.5 -42.5t-17.5 -43t-42.5 -18zM122 760q-26 0 -43.5 18t-17.5 43t18 42.5t43 17.5t42.5 -17.5t17.5 -42.5t-17.5 -43t-42.5 -18z" />
    <glyph glyph-name="macron.cap" horiz-adv-x="444" 
d="M114 863h215q21 0 32.5 -11t11.5 -29t-11.5 -29.5t-32.5 -11.5h-215q-21 0 -32.5 11.5t-11.5 29.5t11.5 29t32.5 11z" />
    <glyph glyph-name="breve.cap" horiz-adv-x="444" 
d="M222 751q-60 0 -100 33t-40 77q0 14 8.5 23t23.5 9q21 0 34 -26q20 -41 74 -41q55 0 73 41q13 26 35 26q14 0 23 -9t9 -23q0 -44 -40 -77t-100 -33z" />
    <glyph glyph-name="ring.cap" horiz-adv-x="444" 
d="M222 721q-44 0 -73 28.5t-29 71.5t29 71.5t73 28.5t73 -28.5t29 -71.5t-29 -71.5t-73 -28.5zM222 770q22 0 35.5 14t13.5 37t-13.5 37t-35.5 14t-35.5 -14t-13.5 -37t13.5 -37t35.5 -14z" />
    <glyph glyph-name="hungarumlaut.cap" horiz-adv-x="444" 
d="M314 773q-15 -22 -37 -22q-17 0 -30.5 11.5t-13.5 29.5q0 16 12 33l42 63q15 22 39 22q17 0 30 -12t13 -30q0 -17 -11 -32zM155 773q-15 -22 -37 -22q-17 0 -30.5 11.5t-13.5 29.5q0 16 12 33l42 63q15 22 39 22q17 0 30 -12t13 -30q0 -17 -11 -32z" />
    <glyph glyph-name="dotaccent.cap" horiz-adv-x="444" 
d="M155 818q0 28 19.5 47.5t47.5 19.5t47.5 -19.5t19.5 -47.5t-19.5 -47.5t-47.5 -19.5t-47.5 19.5t-19.5 47.5z" />
    <glyph glyph-name="commaaccent" horiz-adv-x="444" 
d="M255 -184q-12 -39 -46 -39q-21 0 -35 12.5t-14 33.5q0 12 4 23l22 67q12 39 45 39q22 0 36 -12t14 -33q0 -9 -4 -23z" />
    <glyph glyph-name="commaaccent.alt" horiz-adv-x="444" 
d="M168 621l25 75q13 39 46 39q20 0 34 -13t14 -33q0 -8 -4 -22l-24 -75q-13 -39 -46 -39q-20 0 -34.5 13t-14.5 33q0 8 4 22z" />
    <glyph glyph-name="uni0394" horiz-adv-x="617" 
d="M530 0h-444q-27 0 -41.5 13.5t-14.5 36.5q0 13 7 34l193 534q24 67 78 67q55 0 79 -67l192 -534q8 -24 8 -34q0 -23 -15.5 -36.5t-41.5 -13.5zM444 105q8 0 5 6l-140 401h-3l-140 -401q-2 -6 5 -6h273z" />
    <glyph glyph-name="uni03A9" horiz-adv-x="638" 
d="M534 0h-129q-25 0 -40 15t-15 38q0 20 8 33.5t33 32.5q36 27 53.5 77t17.5 144q0 115 -14 156q-14 42 -47 65.5t-82 23.5t-82 -23.5t-47 -65.5q-14 -41 -14 -156q0 -94 17.5 -144t53.5 -77q25 -19 33 -32.5t8 -33.5q0 -23 -15 -38t-40 -15h-129q-24 0 -39.5 15t-15.5 38
t15.5 38t39.5 15h29v2q-77 54 -77 232q0 127 20 188q26 79 90 121t153 42t153 -42t90 -121q20 -61 20 -188q0 -178 -77 -232v-2h29q24 0 39.5 -15t15.5 -38t-15.5 -38t-39.5 -15z" />
    <glyph glyph-name="uni03BC" horiz-adv-x="550" 
d="M185 19v-145q0 -27 -15.5 -43t-40.5 -16t-40.5 16t-15.5 43v554q0 27 15.5 43t40.5 16t40.5 -16t15.5 -43v-234q0 -48 22.5 -76.5t66.5 -28.5q43 0 67 28.5t24 76.5v234q0 27 15.5 43t40.5 16t40.5 -16t15.5 -43v-374q0 -27 -15.5 -43t-40.5 -16q-47 0 -56 50h-1
q-41 -56 -106 -56q-49 0 -72 30h-1z" />
    <glyph glyph-name="zero.onum" 
d="M274 -11q-108 0 -179.5 72t-71.5 180t71.5 180t179.5 72q109 0 180.5 -72t71.5 -180t-71.5 -180t-180.5 -72zM274 95q61 0 98.5 42t37.5 104t-37.5 103.5t-98.5 41.5q-60 0 -98 -42t-38 -103t38 -103.5t98 -42.5z" />
    <glyph glyph-name="one.onum" 
d="M313 -5q-25 0 -40.5 16t-15.5 43v306h-2l-84 -34q-12 -4 -24 -4q-21 0 -35.5 15t-14.5 37q0 35 34 50l105 45q43 18 71 18t45 -19t17 -48v-366q0 -27 -15.5 -43t-40.5 -16z" />
    <glyph glyph-name="two.onum" 
d="M432 0h-322q-22 0 -35 14t-13 35q0 38 51 69l165 101q53 32 70.5 51.5t17.5 48.5q0 34 -25 54t-66 20q-67 0 -98 -50q-24 -40 -58 -40q-23 0 -36.5 12.5t-13.5 34.5q0 12 3 20q18 54 72.5 88.5t130.5 34.5q93 0 148.5 -49t55.5 -124q0 -52 -26 -89t-81 -69l-103 -60v-2
h163q24 0 38 -14t14 -36t-14 -36t-38 -14z" />
    <glyph glyph-name="three.onum" 
d="M267 -191q-71 0 -123.5 30.5t-71.5 80.5q-4 11 -4 25q0 22 14.5 35.5t37.5 13.5q29 0 53 -35q34 -50 95 -50q46 0 74 28.5t28 78.5t-33 77.5t-90 27.5q-27 0 -43 14.5t-16 39.5q0 29 27 63l111 142v2h-208q-24 0 -38 14t-14 36t14 36t38 14h300q24 0 38 -13.5t14 -35.5
q0 -30 -32 -70l-113 -146v-2q75 -13 116.5 -65.5t41.5 -134.5q0 -93 -61 -149.5t-155 -56.5z" />
    <glyph glyph-name="four.onum" 
d="M325 106v115q0 26 16 42t40 16t40 -16t16 -42v-115q0 -6 6 -6h23q24 0 38.5 -14t14.5 -36t-14.5 -36t-38.5 -14h-23q-6 0 -6 -6v-121q0 -26 -16 -42t-40 -16t-40 16t-16 42v121q0 6 -6 6h-207q-28 0 -44 15.5t-16 40.5t18 62l159 333q16 36 52 36q23 0 37.5 -14t14.5 -37
q0 -15 -7 -29l-146 -305v-2h139q6 0 6 6z" />
    <glyph glyph-name="five.onum" 
d="M426 382h-226q-6 0 -6 -6v-153h2q37 34 107 34q132 0 170 -112q14 -44 14 -111q0 -58 -14 -100q-19 -59 -71.5 -92t-122.5 -33q-73 0 -123 31.5t-67 79.5q-4 9 -4 21q0 22 14 35.5t36 13.5q31 0 50 -30q32 -51 93 -51q69 0 87 56q10 30 10 69q0 36 -10 66q-20 57 -84 57
q-50 0 -78 -38q-25 -32 -58 -32q-25 0 -39.5 15.5t-14.5 42.5v288q0 49 49 49h286q24 0 38 -14t14 -36t-14 -36t-38 -14z" />
    <glyph glyph-name="six.onum" 
d="M275 -11q-94 0 -155.5 56t-61.5 154q0 73 45 156l165 299q16 31 50 31q22 0 37 -13.5t15 -36.5q0 -17 -8 -32l-117 -205l2 -2q18 9 51 9q82 0 138 -55t56 -146q0 -101 -61.5 -158t-155.5 -57zM275 89q48 0 76 30t28 78t-28 78t-76 30t-76 -30t-28 -78t28 -78t76 -30z" />
    <glyph glyph-name="seven.onum" 
d="M216 -185q-24 0 -38.5 15t-14.5 38q0 13 4 24l196 487v3h-171q-6 0 -6 -6v-36q0 -26 -14.5 -41.5t-38.5 -15.5t-38.5 15.5t-14.5 41.5v89q0 25 14.5 39t39.5 14h291q30 0 46 -16t16 -43q0 -24 -19 -72l-200 -500q-14 -36 -52 -36z" />
    <glyph glyph-name="eight.onum" 
d="M274 -11q-96 0 -157.5 57t-61.5 147q0 55 24 97.5t61 65.5v2q-29 19 -49.5 56t-20.5 83q0 81 55 137.5t149 56.5q95 0 150 -56.5t55 -137.5q0 -46 -20.5 -83t-49.5 -56v-2q37 -23 61 -65.5t24 -97.5q0 -91 -61.5 -147.5t-158.5 -56.5zM274 407q41 0 66.5 27t25.5 65
q0 39 -25.5 65.5t-66.5 26.5q-40 0 -65.5 -26.5t-25.5 -65.5q0 -38 25.5 -65t65.5 -27zM274 89q48 0 77.5 30.5t29.5 78.5t-29.5 78.5t-77.5 30.5t-77 -30.5t-29 -78.5t29 -78.5t77 -30.5z" />
    <glyph glyph-name="nine.onum" 
d="M275 493q94 0 155.5 -56t61.5 -154q0 -73 -45 -156l-155 -281q-16 -31 -50 -31q-22 0 -37 13.5t-15 36.5q0 17 8 32l107 187l-2 2q-18 -9 -51 -9q-82 0 -138 55t-56 146q0 101 61.5 158t155.5 57zM275 393q-48 0 -76 -30t-28 -78t28 -78t76 -30t76 30t28 78t-28 78
t-76 30z" />
    <glyph glyph-name="zero.prop" horiz-adv-x="539" 
d="M71 122q-14 44 -14 218t14 218q42 133 193 133q150 0 194 -133q14 -44 14 -218t-14 -218q-44 -133 -194 -133q-151 0 -193 133zM181 143q19 -54 83 -54t84 54q9 27 9 197t-9 197q-19 54 -84 54q-64 0 -83 -54q-9 -27 -9 -197t9 -197z" />
    <glyph glyph-name="one.prop" horiz-adv-x="400" 
d="M176 54v493h-2l-75 -53q-14 -10 -34 -10q-19 0 -33 14.5t-14 34.5q0 27 30 49l109 77q37 26 70 26q28 0 44.5 -18t16.5 -48v-565q0 -27 -15.5 -43t-40.5 -16t-40.5 16t-15.5 43z" />
    <glyph glyph-name="two.prop" horiz-adv-x="504" 
d="M42 49q0 29 34 70l222 275q45 56 45 106q0 41 -24.5 66t-66.5 25q-70 0 -95 -66q-15 -40 -52 -40q-24 0 -38.5 13.5t-14.5 36.5q0 4 2 16q12 57 65.5 98.5t135.5 41.5q92 0 146 -53t54 -136t-68 -166l-195 -234v-2h216q24 0 38 -14t14 -36t-14 -36t-38 -14h-313
q-24 0 -38.5 13.5t-14.5 35.5z" />
    <glyph glyph-name="three.prop" horiz-adv-x="509" 
d="M49 100q-5 15 -5 27q0 22 14 36t37 14q33 0 52 -36q29 -52 96 -52q47 0 74.5 28t27.5 75q0 49 -30.5 78.5t-77.5 29.5h-10q-22 0 -36 14t-14 36t14 36t36 14h10q41 0 67 27t26 72q0 43 -24.5 67.5t-67.5 24.5q-64 0 -87 -51q-17 -35 -50 -35q-22 0 -36.5 14t-14.5 36
q0 13 6 27q20 48 68 78.5t118 30.5q93 0 147 -51.5t54 -133.5q0 -95 -76 -144v-2q36 -17 63 -60.5t27 -106.5q0 -90 -60 -147t-153 -57q-73 0 -124 30t-71 81z" />
    <glyph glyph-name="four.prop" horiz-adv-x="534" 
d="M97 110q-28 0 -44 15.5t-16 41.5q0 21 19 63l197 419q16 36 52 36q23 0 37.5 -14t14.5 -38q0 -15 -9 -34l-183 -387v-2h153q6 0 6 6v122q0 27 15 42.5t39 15.5q25 0 41.5 -16t16.5 -42v-122q0 -6 6 -6h22q24 0 38 -14t14 -36t-14 -36t-38 -14h-22q-6 0 -6 -6v-50
q0 -27 -15.5 -43t-40.5 -16t-40.5 16t-15.5 43v50q0 6 -6 6h-221z" />
    <glyph glyph-name="five.prop" horiz-adv-x="540" 
d="M82 100q-4 9 -4 21q0 22 14 35.5t36 13.5q31 0 50 -30q32 -51 93 -51q69 0 87 55q10 30 10 76q0 44 -10 74q-20 57 -84 57q-50 0 -78 -38q-25 -32 -58 -32q-25 0 -39.5 15.5t-14.5 42.5v292q0 49 49 49h286q24 0 38 -14t14 -36t-14 -36t-38 -14h-226q-6 0 -6 -6v-157h2
q37 34 107 34q132 0 170 -112q14 -44 14 -119q0 -65 -14 -107q-19 -59 -71.5 -91.5t-122.5 -32.5q-73 0 -123 31.5t-67 79.5z" />
    <glyph glyph-name="six.prop" horiz-adv-x="538" 
d="M52 199q0 73 45 156l165 299q16 31 50 31q22 0 37 -13.5t15 -36.5q0 -17 -8 -32l-117 -205l2 -2q18 9 51 9q82 0 138 -55t56 -146q0 -101 -61.5 -158t-155.5 -57t-155.5 56t-61.5 154zM165 197q0 -48 28 -78t76 -30t76 30t28 78t-28 78t-76 30t-76 -30t-28 -78z" />
    <glyph glyph-name="seven.prop" horiz-adv-x="504" 
d="M132 48q0 13 4 24l202 505v3h-171q-6 0 -6 -6v-36q0 -26 -14.5 -41.5t-38.5 -15.5t-38.5 15.5t-14.5 41.5v89q0 25 14.5 39t39.5 14h291q30 0 46 -16t16 -43q0 -24 -19 -72l-206 -518q-13 -36 -52 -36q-24 0 -38.5 15t-14.5 38z" />
    <glyph glyph-name="eight.prop" horiz-adv-x="543" 
d="M52 193q0 55 24 97.5t61 65.5v2q-29 19 -49.5 56t-20.5 83q0 81 55 137.5t149 56.5q95 0 150 -56.5t55 -137.5q0 -46 -20.5 -83t-49.5 -56v-2q37 -23 61 -65.5t24 -97.5q0 -91 -61.5 -147.5t-158.5 -56.5q-96 0 -157.5 57t-61.5 147zM271 407q41 0 66.5 27t25.5 65
q0 39 -25.5 65.5t-66.5 26.5q-40 0 -65.5 -26.5t-25.5 -65.5q0 -38 25.5 -65t65.5 -27zM165 198q0 -48 29 -78.5t77 -30.5t77.5 30.5t29.5 78.5t-29.5 78.5t-77.5 30.5t-77 -30.5t-29 -78.5z" />
    <glyph glyph-name="nine.prop" horiz-adv-x="538" 
d="M174 45q0 17 8 32l117 205l-2 2q-18 -9 -51 -9q-82 0 -138 55t-56 146q0 101 61.5 158t155.5 57t155.5 -56t61.5 -154q0 -73 -45 -156l-165 -299q-16 -31 -50 -31q-22 0 -37 13.5t-15 36.5zM269 375q48 0 76 30t28 78t-28 78t-76 30t-76 -30t-28 -78t28 -78t76 -30z" />
    <glyph glyph-name="Euro.prop" horiz-adv-x="562" 
d="M115 232q0 6 -6 6h-18q-19 0 -30.5 11t-11.5 28t11.5 28t30.5 11h18q6 0 6 6v41q0 6 -6 6h-18q-19 0 -30.5 11t-11.5 28t11.5 28t30.5 11h18q6 0 6 6q0 54 13 94q22 69 74.5 106.5t129.5 37.5q67 0 115.5 -30t65.5 -72q4 -11 4 -23q0 -19 -14 -32.5t-34 -13.5
q-27 0 -48 28q-32 43 -89 43q-73 0 -95 -70q-9 -27 -9 -68q0 -6 6 -6h165q19 0 30.5 -11t11.5 -28t-11.5 -28t-30.5 -11h-165q-6 0 -6 -6v-41q0 -6 6 -6h125q19 0 30.5 -11t11.5 -28t-11.5 -28t-30.5 -11h-125q-6 0 -6 -6q0 -46 9 -73q22 -70 95 -70q57 0 89 43q21 28 48 28
q20 0 34 -13.5t14 -32.5q0 -12 -4 -23q-17 -42 -65.5 -72t-115.5 -30q-77 0 -129.5 37.5t-74.5 106.5q-13 40 -13 99z" />
    <glyph glyph-name="cent.prop" horiz-adv-x="479" 
d="M264 -105q-27 0 -27 29v67q-137 12 -175 131q-15 45 -15 119t15 119q38 119 175 131v65q0 29 27 29t27 -29v-64q83 -8 129 -60q20 -21 20 -44q0 -21 -14 -35t-35 -14q-22 0 -46 24t-54 28v-301q30 5 54 29t46 24q21 0 35 -14t14 -35q0 -23 -20 -44q-46 -52 -129 -60v-66
q0 -29 -27 -29zM171 152q15 -50 66 -61v299q-51 -10 -66 -60q-10 -30 -10 -89t10 -89z" />
    <glyph glyph-name="dollar.prop" horiz-adv-x="526" 
d="M69 40q-25 15 -25 44q0 22 14 36.5t37 14.5q14 0 32 -9q60 -32 111 -36v205q-86 14 -134.5 65t-48.5 127q0 83 51 138.5t132 63.5v37q0 33 29 33q30 0 30 -33v-36q66 -6 122 -36q27 -16 27 -46q0 -20 -13.5 -34.5t-34.5 -14.5q-14 0 -26 6q-40 18 -75 23v-195
q90 -15 137 -65t47 -128q0 -85 -49 -140.5t-135 -67.5v-41q0 -33 -30 -33q-29 0 -29 33v38q-92 4 -169 51zM238 405v183q-34 -7 -54 -32t-20 -61q0 -69 74 -90zM297 93q75 18 75 103q0 66 -75 88v-191z" />
    <glyph glyph-name="sterling.prop" horiz-adv-x="508" 
d="M413 0h-299q-24 0 -38 13.5t-14 35.5q0 28 30 62q26 27 26 79v79q0 6 -6 6h-21q-20 0 -32 12t-12 30t12 30t32 12h21q6 0 6 6v138q0 89 47.5 138.5t129.5 49.5q59 0 99.5 -27t54.5 -69q4 -12 4 -24q0 -22 -14 -36t-36 -14q-33 0 -49 31q-18 39 -60 39q-64 0 -64 -75v-151
q0 -6 6 -6h91q20 0 32 -12t12 -30t-12 -30t-32 -12h-91q-6 0 -6 -6v-67q0 -69 -28 -100v-2h211q24 0 38 -14t14 -36t-14 -36t-38 -14z" />
    <glyph glyph-name="florin.prop" horiz-adv-x="493" 
d="M382 324h-70l-52 -344q-13 -87 -53.5 -123.5t-120.5 -36.5h-6q-24 0 -37.5 13.5t-13.5 34.5q0 22 13.5 35.5t37.5 13.5q33 0 50 14.5t22 50.5l53 342h-40q-22 0 -34.5 11.5t-12.5 31.5q0 19 12.5 30.5t34.5 11.5h53l17 111q14 88 53 124t119 36h6q24 0 37.5 -13.5
t13.5 -34.5q0 -22 -14 -35.5t-37 -13.5q-33 0 -49 -14.5t-22 -50.5l-17 -109h57q22 0 34.5 -11.5t12.5 -30.5q0 -20 -12.5 -31.5t-34.5 -11.5z" />
    <glyph glyph-name="yen.prop" horiz-adv-x="564" 
d="M493 607l-126 -259v-2h73q19 0 30.5 -11t11.5 -28t-11.5 -28t-30.5 -11h-96q-6 0 -6 -6v-41q0 -6 6 -6h96q19 0 30.5 -11t11.5 -28t-11.5 -28t-30.5 -11h-96q-6 0 -6 -6v-77q0 -27 -15.5 -43t-40.5 -16t-40.5 16t-15.5 43v77q0 6 -6 6h-96q-19 0 -30.5 11t-11.5 28
t11.5 28t30.5 11h96q6 0 6 6v41q0 6 -6 6h-96q-19 0 -30.5 11t-11.5 28t11.5 28t30.5 11h73v2l-126 259q-6 13 -6 27q0 21 15 36t39 15q35 0 51 -36l112 -255h3l111 255q16 36 51 36q23 0 37.5 -14.5t14.5 -36.5q0 -14 -6 -27z" />
    <glyph glyph-name="zero.onumprop" horiz-adv-x="597" 
d="M298 -11q-108 0 -179.5 72t-71.5 180t71.5 180t179.5 72q109 0 180.5 -72t71.5 -180t-71.5 -180t-180.5 -72zM298 95q61 0 98.5 42t37.5 104t-37.5 103.5t-98.5 41.5q-60 0 -98 -42t-38 -103t38 -103.5t98 -42.5z" />
    <glyph glyph-name="one.onumprop" horiz-adv-x="400" 
d="M245 -5q-25 0 -40.5 16t-15.5 43v306h-2l-84 -34q-12 -4 -24 -4q-21 0 -35.5 15t-14.5 37q0 35 34 50l105 45q43 18 71 18t45 -19t17 -48v-366q0 -27 -15.5 -43t-40.5 -16z" />
    <glyph glyph-name="two.onumprop" horiz-adv-x="524" 
d="M418 0h-322q-22 0 -35 14t-13 35q0 38 51 69l165 101q53 32 70.5 51.5t17.5 48.5q0 34 -25 54t-66 20q-67 0 -98 -50q-24 -40 -58 -40q-23 0 -36.5 12.5t-13.5 34.5q0 12 3 20q18 54 72.5 88.5t130.5 34.5q93 0 148.5 -49t55.5 -124q0 -52 -26 -89t-81 -69l-103 -60v-2
h163q24 0 38 -14t14 -36t-14 -36t-38 -14z" />
    <glyph glyph-name="three.onumprop" horiz-adv-x="504" 
d="M246 -191q-71 0 -123.5 30.5t-71.5 80.5q-4 11 -4 25q0 22 14.5 35.5t37.5 13.5q29 0 53 -35q34 -50 95 -50q46 0 74 28.5t28 78.5t-33 77.5t-90 27.5q-27 0 -43 14.5t-16 39.5q0 29 27 63l111 142v2h-208q-24 0 -38 14t-14 36t14 36t38 14h300q24 0 38 -13.5t14 -35.5
q0 -30 -32 -70l-113 -146v-2q75 -13 116.5 -65.5t41.5 -134.5q0 -93 -61 -149.5t-155 -56.5z" />
    <glyph glyph-name="four.onumprop" horiz-adv-x="524" 
d="M303 106v115q0 26 16 42t40 16t40 -16t16 -42v-115q0 -6 6 -6h23q24 0 38.5 -14t14.5 -36t-14.5 -36t-38.5 -14h-23q-6 0 -6 -6v-121q0 -26 -16 -42t-40 -16t-40 16t-16 42v121q0 6 -6 6h-207q-28 0 -44 15.5t-16 40.5t18 62l159 333q16 36 52 36q23 0 37.5 -14t14.5 -37
q0 -15 -7 -29l-146 -305v-2h139q6 0 6 6z" />
    <glyph glyph-name="five.onumprop" horiz-adv-x="516" 
d="M413 382h-226q-6 0 -6 -6v-153h2q37 34 107 34q132 0 170 -112q14 -44 14 -111q0 -58 -14 -100q-19 -59 -71.5 -92t-122.5 -33q-73 0 -123 31.5t-67 79.5q-4 9 -4 21q0 22 14 35.5t36 13.5q31 0 50 -30q32 -51 93 -51q69 0 87 56q10 30 10 69q0 36 -10 66q-20 57 -84 57
q-50 0 -78 -38q-25 -32 -58 -32q-25 0 -39.5 15.5t-14.5 42.5v288q0 49 49 49h286q24 0 38 -14t14 -36t-14 -36t-38 -14z" />
    <glyph glyph-name="six.onumprop" horiz-adv-x="528" 
d="M264 -11q-94 0 -155.5 56t-61.5 154q0 73 45 156l165 299q16 31 50 31q22 0 37 -13.5t15 -36.5q0 -17 -8 -32l-117 -205l2 -2q18 9 51 9q82 0 138 -55t56 -146q0 -101 -61.5 -158t-155.5 -57zM264 89q48 0 76 30t28 78t-28 78t-76 30t-76 -30t-28 -78t28 -78t76 -30z" />
    <glyph glyph-name="seven.onumprop" horiz-adv-x="495" 
d="M195 -185q-24 0 -38.5 15t-14.5 38q0 13 4 24l196 487v3h-171q-6 0 -6 -6v-36q0 -26 -14.5 -41.5t-38.5 -15.5t-38.5 15.5t-14.5 41.5v89q0 25 14.5 39t39.5 14h291q30 0 46 -16t16 -43q0 -24 -19 -72l-200 -500q-13 -36 -52 -36z" />
    <glyph glyph-name="eight.onumprop" horiz-adv-x="533" 
d="M266 -11q-96 0 -157.5 57t-61.5 147q0 55 24 97.5t61 65.5v2q-29 19 -49.5 56t-20.5 83q0 81 55 137.5t149 56.5q95 0 150 -56.5t55 -137.5q0 -46 -20.5 -83t-49.5 -56v-2q37 -23 61 -65.5t24 -97.5q0 -91 -61.5 -147.5t-158.5 -56.5zM266 407q41 0 66.5 27t25.5 65
q0 39 -25.5 65.5t-66.5 26.5q-40 0 -65.5 -26.5t-25.5 -65.5q0 -38 25.5 -65t65.5 -27zM266 89q48 0 77.5 30.5t29.5 78.5t-29.5 78.5t-77.5 30.5t-77 -30.5t-29 -78.5t29 -78.5t77 -30.5z" />
    <glyph glyph-name="nine.onumprop" horiz-adv-x="528" 
d="M264 493q94 0 155.5 -56t61.5 -154q0 -73 -45 -156l-155 -281q-16 -31 -50 -31q-22 0 -37 13.5t-15 36.5q0 17 8 32l107 187l-2 2q-18 -9 -51 -9q-82 0 -138 55t-56 146q0 101 61.5 158t155.5 57zM264 393q-48 0 -76 -30t-28 -78t28 -78t76 -30t76 30t28 78t-28 78
t-76 30z" />
    <glyph glyph-name="one.superior" horiz-adv-x="349" 
d="M200 425q-19 0 -31 13t-12 34v263h-2l-32 -21q-13 -8 -25 -8q-16 0 -26.5 11.5t-10.5 27.5q0 22 23 38l53 36q31 22 56 22q23 0 36.5 -13.5t13.5 -37.5v-318q0 -21 -12 -34t-31 -13z" />
    <glyph glyph-name="two.superior" horiz-adv-x="349" 
d="M274 430h-198q-20 0 -31 10.5t-11 28.5q0 22 32 57l128 140q28 29 28 60q0 20 -13 32.5t-35 12.5q-34 0 -53 -34q-14 -26 -39 -26q-17 0 -27.5 10t-10.5 26q0 12 4 21q11 32 45 54t82 22q59 0 96 -32.5t37 -85.5t-48 -104l-109 -117v-1h123q19 0 29.5 -10t10.5 -26
q0 -38 -40 -38z" />
    <glyph glyph-name="three.superior" horiz-adv-x="349" 
d="M175 422q-46 0 -80.5 17.5t-47.5 48.5q-4 9 -4 19q0 15 10.5 26t28.5 11q21 0 39 -24q20 -25 52 -25q25 0 40 15t15 39t-16 38.5t-44 14.5q-18 0 -28 10t-10 26t10 26t28 10q23 0 37 13t14 36q0 22 -13.5 35t-36.5 13q-29 0 -47 -23q-19 -22 -38 -22q-16 0 -26.5 9.5
t-10.5 25.5q0 10 4 19q11 27 43.5 45.5t77.5 18.5q61 0 97 -32t36 -82q0 -51 -45 -85v-1q21 -10 37.5 -35t16.5 -61q0 -56 -38.5 -91t-100.5 -35z" />
    <glyph glyph-name="a.alt01" horiz-adv-x="545" 
d="M416 -5q-48 0 -56 51h-1q-40 -57 -130 -57q-60 0 -103 32.5t-62 89.5q-17 52 -17 130t17 130q19 57 62 89.5t103 32.5q90 0 130 -57h1q8 51 56 51q25 0 40.5 -16t15.5 -43v-374q0 -27 -15.5 -43t-40.5 -16zM260 89q69 0 90 64q10 30 10 88t-10 88q-21 64 -90 64
q-68 0 -89 -64q-10 -30 -10 -88t10 -88q21 -64 89 -64z" />
    <glyph glyph-name="agrave.alt01" horiz-adv-x="545" 
d="M416 -5q-48 0 -56 51h-1q-40 -57 -130 -57q-60 0 -103 32.5t-62 89.5q-17 52 -17 130t17 130q19 57 62 89.5t103 32.5q90 0 130 -57h1q8 51 56 51q25 0 40.5 -16t15.5 -43v-374q0 -27 -15.5 -43t-40.5 -16zM260 89q69 0 90 64q10 30 10 88t-10 88q-21 64 -90 64
q-68 0 -89 -64q-10 -30 -10 -88t10 -88q21 -64 89 -64zM261 545q-23 0 -37 20l-51 73q-11 17 -11 32q0 18 13 29.5t31 11.5q24 0 38 -20l49 -74q11 -16 11 -32q0 -18 -12 -29t-31 -11z" />
    <glyph glyph-name="aacute.alt01" horiz-adv-x="545" 
d="M416 -5q-48 0 -56 51h-1q-40 -57 -130 -57q-60 0 -103 32.5t-62 89.5q-17 52 -17 130t17 130q19 57 62 89.5t103 32.5q90 0 130 -57h1q8 51 56 51q25 0 40.5 -16t15.5 -43v-374q0 -27 -15.5 -43t-40.5 -16zM260 89q69 0 90 64q10 30 10 88t-10 88q-21 64 -90 64
q-68 0 -89 -64q-10 -30 -10 -88t10 -88q21 -64 89 -64zM286 565q-14 -20 -37 -20q-19 0 -31 11t-12 29q0 17 11 32l49 74q13 20 38 20q18 0 31 -11.5t13 -29.5q0 -16 -11 -32z" />
    <glyph glyph-name="acircumflex.alt01" horiz-adv-x="545" 
d="M416 -5q-48 0 -56 51h-1q-40 -57 -130 -57q-60 0 -103 32.5t-62 89.5q-17 52 -17 130t17 130q19 57 62 89.5t103 32.5q90 0 130 -57h1q8 51 56 51q25 0 40.5 -16t15.5 -43v-374q0 -27 -15.5 -43t-40.5 -16zM260 89q69 0 90 64q10 30 10 88t-10 88q-21 64 -90 64
q-68 0 -89 -64q-10 -30 -10 -88t10 -88q21 -64 89 -64zM362 543q-17 0 -32 15l-64 68h-2l-64 -68q-15 -15 -32 -15q-14 0 -24 9.5t-10 23.5t12 29l64 76q27 32 55 32t55 -32l64 -76q12 -15 12 -29t-10 -23.5t-24 -9.5z" />
    <glyph glyph-name="atilde.alt01" horiz-adv-x="545" 
d="M416 -5q-48 0 -56 51h-1q-40 -57 -130 -57q-60 0 -103 32.5t-62 89.5q-17 52 -17 130t17 130q19 57 62 89.5t103 32.5q90 0 130 -57h1q8 51 56 51q25 0 40.5 -16t15.5 -43v-374q0 -27 -15.5 -43t-40.5 -16zM260 89q69 0 90 64q10 30 10 88t-10 88q-21 64 -90 64
q-68 0 -89 -64q-10 -30 -10 -88t10 -88q21 -64 89 -64zM326 566q-29 0 -66 22q-28 18 -43 18q-16 0 -34 -19q-15 -15 -32 -15q-16 0 -26 9.5t-10 25.5q0 15 11 31q38 50 86 50q29 0 66 -22q28 -18 43 -18q16 0 34 19q15 15 32 15q16 0 26 -9.5t10 -25.5q0 -15 -11 -31
q-37 -50 -86 -50z" />
    <glyph glyph-name="adieresis.alt01" horiz-adv-x="545" 
d="M416 -5q-48 0 -56 51h-1q-40 -57 -130 -57q-60 0 -103 32.5t-62 89.5q-17 52 -17 130t17 130q19 57 62 89.5t103 32.5q90 0 130 -57h1q8 51 56 51q25 0 40.5 -16t15.5 -43v-374q0 -27 -15.5 -43t-40.5 -16zM260 89q69 0 90 64q10 30 10 88t-10 88q-21 64 -90 64
q-68 0 -89 -64q-10 -30 -10 -88t10 -88q21 -64 89 -64zM369 562q-25 0 -43 18t-18 43t18 43t43 18t42.5 -18t17.5 -43t-17.5 -43t-42.5 -18zM169 562q-25 0 -43 18t-18 43t18 43t43 18t42.5 -18t17.5 -43t-17.5 -43t-42.5 -18z" />
    <glyph glyph-name="amacron.alt01" horiz-adv-x="545" 
d="M416 -5q-48 0 -56 51h-1q-40 -57 -130 -57q-60 0 -103 32.5t-62 89.5q-17 52 -17 130t17 130q19 57 62 89.5t103 32.5q90 0 130 -57h1q8 51 56 51q25 0 40.5 -16t15.5 -43v-374q0 -27 -15.5 -43t-40.5 -16zM260 89q69 0 90 64q10 30 10 88t-10 88q-21 64 -90 64
q-68 0 -89 -64q-10 -30 -10 -88t10 -88q21 -64 89 -64zM160 668h215q21 0 32.5 -11t11.5 -29t-11.5 -29.5t-32.5 -11.5h-215q-21 0 -32.5 11.5t-11.5 29.5t11.5 29t32.5 11z" />
    <glyph glyph-name="abreve.alt01" horiz-adv-x="545" 
d="M416 -5q-48 0 -56 51h-1q-40 -57 -130 -57q-60 0 -103 32.5t-62 89.5q-17 52 -17 130t17 130q19 57 62 89.5t103 32.5q90 0 130 -57h1q8 51 56 51q25 0 40.5 -16t15.5 -43v-374q0 -27 -15.5 -43t-40.5 -16zM260 89q69 0 90 64q10 30 10 88t-10 88q-21 64 -90 64
q-68 0 -89 -64q-10 -30 -10 -88t10 -88q21 -64 89 -64zM266 554q-60 0 -100 33t-40 77q0 14 8.5 23t23.5 9q21 0 34 -26q20 -41 74 -41q55 0 73 41q13 26 35 26q14 0 23 -9t9 -23q0 -44 -40 -77t-100 -33z" />
    <glyph glyph-name="aring.alt01" horiz-adv-x="545" 
d="M416 -5q-48 0 -56 51h-1q-40 -57 -130 -57q-60 0 -103 32.5t-62 89.5q-17 52 -17 130t17 130q19 57 62 89.5t103 32.5q90 0 130 -57h1q8 51 56 51q25 0 40.5 -16t15.5 -43v-374q0 -27 -15.5 -43t-40.5 -16zM260 89q69 0 90 64q10 30 10 88t-10 88q-21 64 -90 64
q-68 0 -89 -64q-10 -30 -10 -88t10 -88q21 -64 89 -64zM268 529q-44 0 -73 28.5t-29 71.5t29 71.5t73 28.5t73 -28.5t29 -71.5t-29 -71.5t-73 -28.5zM268 578q22 0 35.5 14t13.5 37t-13.5 37t-35.5 14t-35.5 -14t-13.5 -37t13.5 -37t35.5 -14z" />
    <glyph glyph-name="aringacute.alt01" horiz-adv-x="545" 
d="M306 774q-16 -14 -32 -14q-17 0 -29.5 12t-12.5 30q0 20 18 36l54 54q13 13 31 13t30.5 -12t12.5 -30q0 -17 -20 -37zM416 -5q-48 0 -56 51h-1q-40 -57 -130 -57q-60 0 -103 32.5t-62 89.5q-17 52 -17 130t17 130q19 57 62 89.5t103 32.5q90 0 130 -57h1q8 51 56 51
q25 0 40.5 -16t15.5 -43v-374q0 -27 -15.5 -43t-40.5 -16zM260 89q69 0 90 64q10 30 10 88t-10 88q-21 64 -90 64q-68 0 -89 -64q-10 -30 -10 -88t10 -88q21 -64 89 -64zM268 529q-44 0 -73 28.5t-29 71.5t29 71.5t73 28.5t73 -28.5t29 -71.5t-29 -71.5t-73 -28.5zM268 578
q22 0 35.5 14t13.5 37t-13.5 37t-35.5 14t-35.5 -14t-13.5 -37t13.5 -37t35.5 -14z" />
    <glyph glyph-name="aogonek.alt01" horiz-adv-x="545" 
d="M385 -185q-43 0 -68.5 23t-25.5 63q0 60 79 115q-8 13 -10 30h-1q-40 -57 -130 -57q-60 0 -103 32.5t-62 89.5q-17 52 -17 130t17 130q19 57 62 89.5t103 32.5q90 0 130 -57h1q8 51 56 51q25 0 40.5 -16t15.5 -43v-374q0 -29 -20 -49q-46 -44 -58.5 -60t-12.5 -29
q0 -21 20 -21q4 0 16 4t18 4q14 0 23.5 -11t9.5 -26q0 -24 -21 -35q-24 -16 -62 -16zM260 89q69 0 90 64q10 30 10 88t-10 88q-21 64 -90 64q-68 0 -89 -64q-10 -30 -10 -88t10 -88q21 -64 89 -64z" />
    <glyph glyph-name="ae.alt01" horiz-adv-x="813" 
d="M564 -11q-113 0 -167 68h-2q-32 -38 -71.5 -53t-97.5 -15q-85 0 -130 38t-45 108q0 76 50.5 115t141.5 39h99q6 0 6 6v12q0 89 -108 89q-41 0 -88 -20q-15 -6 -29 -6q-20 0 -33 12.5t-13 33.5q0 30 28 44q57 33 147 33q107 0 155 -56h1q54 56 147 56q74 0 125.5 -35
t72.5 -98q15 -48 15 -116q0 -18 -10.5 -28.5t-28.5 -10.5h-269q-6 0 -6 -6q0 -17 7 -37q24 -73 110 -73q49 0 98 33q23 16 41 16q21 0 34 -13t13 -34q0 -26 -23 -44q-71 -58 -170 -58zM460 289h189q6 0 6 6q0 23 -6 41q-10 29 -35.5 45.5t-59.5 16.5t-59 -16.5t-35 -45.5
q-6 -18 -6 -41q0 -6 6 -6zM242 80q50 0 78 19.5t28 56.5v43q0 6 -6 6h-80q-55 0 -79.5 -16t-24.5 -49q0 -60 84 -60z" />
    <glyph glyph-name="aeacute.alt01" horiz-adv-x="813" 
d="M564 -11q-113 0 -167 68h-2q-32 -38 -71.5 -53t-97.5 -15q-85 0 -130 38t-45 108q0 76 50.5 115t141.5 39h99q6 0 6 6v12q0 89 -108 89q-41 0 -88 -20q-15 -6 -29 -6q-20 0 -33 12.5t-13 33.5q0 30 28 44q57 33 147 33q107 0 155 -56h1q54 56 147 56q74 0 125.5 -35
t72.5 -98q15 -48 15 -116q0 -18 -10.5 -28.5t-28.5 -10.5h-269q-6 0 -6 -6q0 -17 7 -37q24 -73 110 -73q49 0 98 33q23 16 41 16q21 0 34 -13t13 -34q0 -26 -23 -44q-71 -58 -170 -58zM460 289h189q6 0 6 6q0 23 -6 41q-10 29 -35.5 45.5t-59.5 16.5t-59 -16.5t-35 -45.5
q-6 -18 -6 -41q0 -6 6 -6zM242 80q50 0 78 19.5t28 56.5v43q0 6 -6 6h-80q-55 0 -79.5 -16t-24.5 -49q0 -60 84 -60zM456 565q-14 -20 -37 -20q-19 0 -31 11t-12 29q0 17 11 32l49 74q13 20 38 20q18 0 31 -11.5t13 -29.5q0 -16 -11 -32z" />
    <glyph glyph-name="germandbls.alt01" horiz-adv-x="569" 
d="M185 522v-34q0 -6 6 -6h264q25 0 39.5 -13t14.5 -36q0 -25 -26 -59l-88 -115v-2q122 -51 122 -200q0 -102 -72.5 -169.5t-177.5 -67.5q-24 0 -37 14.5t-13 35.5q0 43 50 51q64 10 100 44.5t36 88.5q0 87 -86 120q-43 19 -43 60q0 27 21 56l70 92v2h-174q-6 0 -6 -6v-324
q0 -27 -15.5 -43t-40.5 -16t-40.5 16t-15.5 43v466q0 86 38 123t122 37h4q26 0 41.5 -13.5t15.5 -36.5q0 -22 -14.5 -36t-36.5 -14q-34 0 -46 -12t-12 -46z" />
    <glyph glyph-name="q.alt01" horiz-adv-x="545" 
d="M423 -185q-29 0 -46 17t-17 48v166h-1q-39 -57 -130 -57q-60 0 -103 32.5t-62 89.5q-17 52 -17 130t17 130q19 57 62 89.5t103 32.5q90 0 130 -57h1q8 51 56 51q25 0 40.5 -16t15.5 -43v-497h1l40 34q14 13 31 13q16 0 27.5 -11.5t11.5 -27.5q0 -21 -21 -38l-73 -60
q-32 -26 -66 -26zM260 89q69 0 90 64q10 30 10 88t-10 88q-21 64 -90 64q-68 0 -89 -64q-10 -30 -10 -88t10 -88q21 -64 89 -64z" />
    <glyph glyph-name="C.alt01" horiz-adv-x="587" 
d="M308 585q-91 0 -120 -89q-13 -40 -13 -156t13 -156q29 -89 120 -89q82 0 112 77q18 47 58 47q26 0 41 -15.5t15 -39.5q0 -18 -8 -37q-22 -64 -81.5 -101t-137.5 -37q-87 0 -147 42t-86 122q-19 64 -19 187t19 187q26 80 86 122t147 42q78 0 137.5 -37t81.5 -101
q8 -19 8 -37q0 -24 -15 -39.5t-41 -15.5q-40 0 -58 47q-30 77 -112 77z" />
    </font>
</defs>
</svg>
